<?xml version="1.0" standalone="no"?>
<!DOCTYPE svg PUBLIC "-//W3C//DTD SVG 1.1//EN" "http://www.w3.org/Graphics/SVG/1.1/DTD/svg11.dtd" >
<svg xmlns="http://www.w3.org/2000/svg">
<defs>
  <font id="iconfont" horiz-adv-x="1886.5">
    <font-face font-family="iconfont"
      units-per-em="1001" ascent="1001"
      descent="0" />
    <missing-glyph horiz-adv-x="0" />
    <glyph glyph-name="BEZPIECZNE_ZAKUPY_15_80"
      unicode="&#xE001;"
      horiz-adv-x="1001" d="M496.961465 913.033996875C499.30881 913.369331875 501.69244125 913.369331875 504.03978625 913.033996875L841.8760349999999 864.7714075C854.20460125 863.01089875 863.3625 852.4516 863.3625 839.99790875V393.72708375C863.3625 282.73245 778.58781 208.0103025000001 694.52007625 161.0634025000002C609.8417324999999 113.7774137500002 521.50223125 92.0982562500001 505.71395875 88.4496112500001C502.13037875 87.6212837500001 498.86962125 87.6212837500001 495.2872924999999 88.4496112500001C479.4990199999999 92.0982562500001 391.15951875 113.7774137500002 306.48242625 161.0634025000002C222.41344125 208.0103025000001 137.63875125 282.73245 137.63875125 393.72708375C137.63624875 530.12084125 137.6375 785.08805375 137.63875125 840.18059125C137.63875125 852.86201 147.02312625 863.04343125 159.123965 864.7714075L496.961465 913.033996875zM500.5 888.260498125L162.66375125 839.99790875C162.6625 784.5262425000001 162.66124875 529.9706912500001 162.66375125 393.72708375C162.66375125 297.0855387500001 236.47248625 228.8210925 318.683365 182.91273C399.5516525 137.75386625 484.38264875 116.6790625000001 500.5 112.9290662500001C516.61735125 116.6790625000001 601.44959875 137.75386625 682.31788625 182.91273C764.5287649999999 228.8210925 838.3375 297.0855387500001 838.3375 393.72708375V839.99790875L500.5 888.260498125zM500.5 775.775C438.3053675 775.775 387.8875 725.3571325 387.8875 663.1625C387.8875 600.9678675 438.3053675 550.55 500.5 550.55C562.6946324999999 550.55 613.1125 600.9678675 613.1125 663.1625C613.1125 725.3571325 562.6946324999999 775.775 500.5 775.775zM362.8625 663.1625C362.8625 667.38046375 363.05269 671.5533825 363.42306 675.675H337.8375H314.198885L336.59000375 462.9625H594.34375L594.3650212499999 462.9625H676.92249625L699.313615 675.675H637.5769399999999C637.94731 671.5533825 638.1374999999999 667.38046375 638.1374999999999 663.1625C638.1374999999999 587.14781125 576.51468875 525.5250000000001 500.5 525.5250000000001C424.48531125 525.5250000000001 362.8625 587.14781125 362.8625 663.1625zM368.04392625 700.7H337.8375H314.198885H237.7375C230.82684625 700.7 225.225 695.0981537499999 225.225 688.1875C225.225 681.2768462500001 230.82684625 675.675 237.7375 675.675H289.1713825C289.17263375 674.81038625 289.21893 673.9357625 289.3115225 673.0548825000001L311.58502375 461.4484875000001C283.64210875 455.1872325000001 262.7625 430.2323025000001 262.7625 400.4000000000001C262.7625 365.8479825000001 290.7729825 337.8375000000001 325.325 337.8375000000001H344.53293875C340.274935 330.4763962500001 337.8375 321.9291075 337.8375 312.8125C337.8375 285.17113625 360.24613625 262.7625000000001 387.8875 262.7625000000001C415.52886375 262.7625000000001 437.9375 285.17113625 437.9375 312.8125C437.9375 321.9291075 435.500065 330.4763962500001 431.24206125 337.8375000000001H594.78293875C590.524935 330.4763962500001 588.0875 321.9291075 588.0875 312.8125C588.0875 285.17113625 610.49613625 262.7625000000001 638.1374999999999 262.7625000000001C665.7788637499999 262.7625000000001 688.1875 285.17113625 688.1875 312.8125C688.1875 321.9291075 685.750065 330.4763962500001 681.49206125 337.8375000000001H706.95625C713.86690375 337.8375000000001 719.46875 343.43934625 719.46875 350.35C719.46875 357.2606537500001 713.86690375 362.8625000000001 706.95625 362.8625000000001H638.1374999999999H387.8875H325.325C304.59303875 362.8625000000001 287.7875 379.6680387500001 287.7875 400.4000000000001C287.7875 421.13196125 304.59303875 437.9375 325.325 437.9375H336.59000375H594.34375H676.92249625C689.7302912499999 437.9375 700.4697699999999 447.6059087500001 701.80985875 460.3423825L724.2009774999999 673.0548825000001C725.7562812499999 687.8308937500001 714.1709575 700.7 699.313615 700.7H632.95607375C616.61725125 758.4702125 563.50168875 800.8 500.5 800.8C437.49831125 800.8 384.38274875 758.4702125 368.04392625 700.7zM387.8875 337.8375000000001C374.0661925 337.8375000000001 362.8625 326.6338075 362.8625 312.8125C362.8625 298.9911925 374.0661925 287.7875 387.8875 287.7875C401.7088075 287.7875 412.9125 298.9911925 412.9125 312.8125C412.9125 326.6338075 401.7088075 337.8375000000001 387.8875 337.8375000000001zM638.1374999999999 337.8375000000001C624.3161924999999 337.8375000000001 613.1125 326.6338075 613.1125 312.8125C613.1125 298.9911925 624.3161924999999 287.7875 638.1374999999999 287.7875C651.9588074999999 287.7875 663.1624999999999 298.9911925 663.1624999999999 312.8125C663.1624999999999 326.6338075 651.9588074999999 337.8375000000001 638.1374999999999 337.8375000000001zM560.4273675 693.01857625C564.669105 698.472775 563.68687375 706.33437875 558.23142375 710.5773675C552.7772249999999 714.819105 544.91562125 713.83687375 540.6726325 708.3814237500001L492.15791625 646.00536L472.8398675 670.84392375C468.59687875 676.2993737500001 460.735275 677.281605 455.28107625 673.0398675C449.82562625 668.79687875 448.843395 660.935275 453.0851325 655.48107625L482.2817999999999 617.94357625C484.6516675 614.89553125 488.29655875 613.1125 492.15791625 613.1125C496.01927375 613.1125 499.664165 614.89553125 502.03528375 617.94357625L560.4273675 693.01857625z" />
    <glyph glyph-name="COPY"
      unicode="&#xE002;"
      horiz-adv-x="1001" d="M375.375 907.15625C335.0638958333334 907.15625 302.3854166666667 874.4777708333334 302.3854166666667 834.1666666666666V782.03125H250.25C209.9388958333334 782.03125 177.2604166666667 749.3527708333334 177.2604166666667 709.0416666666666V125.125C177.2604166666667 84.8138958333333 209.9388958333334 52.1354166666666 250.25 52.1354166666666H667.3333333333334C707.6444375 52.1354166666666 740.3229166666667 84.8138958333333 740.3229166666667 125.125V177.2604166666666H792.4583333333334C832.7694375000001 177.2604166666666 865.4479166666667 209.9388958333333 865.4479166666667 250.25V721.9987775L680.2921125 907.15625H375.375zM364.9479166666667 834.1666666666666C364.9479166666667 839.92533625 369.6163304166667 844.59375 375.375 844.59375H636.0520833333334V750.75C636.0520833333334 710.4388958333334 668.7305625 677.7604166666666 709.0416666666667 677.7604166666666H802.8854166666667V250.25C802.8854166666667 244.4900791666666 798.2182541666667 239.8229166666667 792.4583333333334 239.8229166666667H375.375C369.6163304166667 239.8229166666667 364.9479166666667 244.4900791666666 364.9479166666667 250.25V834.1666666666666zM758.6453875 740.3229166666666H709.0416666666667C703.2817458333333 740.3229166666666 698.6145833333334 744.9913304166666 698.6145833333334 750.75V800.3553891666667L758.6453875 740.3229166666666zM677.7604166666667 177.2604166666666V125.125C677.7604166666667 119.3650791666665 673.0932541666667 114.6979166666666 667.3333333333334 114.6979166666666H250.25C244.4913304166667 114.6979166666666 239.8229166666667 119.3650791666665 239.8229166666667 125.125V709.0416666666666C239.8229166666667 714.80033625 244.4913304166667 719.46875 250.25 719.46875H302.3854166666667V250.25C302.3854166666667 209.9388958333333 335.0638958333334 177.2604166666666 375.375 177.2604166666666H677.7604166666667z" />
    <glyph glyph-name="ZWROT_ICON_80"
      unicode="&#xE003;"
      horiz-adv-x="1001" d="M475.03581125 736.5332975C478.9309525 738.8055675 483.7495162499999 738.8055675 487.6446575 736.5332975L681.1980175 623.62675375C685.0418575 621.38451375 687.40546875 617.2691525 687.40546875 612.8197075V387.00787125C687.40546875 382.5571750000001 685.0418575 378.4418137500001 681.1980175 376.19957375L487.6446575 263.2942812500001C483.7495162499999 261.02076 478.9309525 261.02076 475.03581125 263.2942812500001L281.48245125 376.19957375C277.63861125 378.4418137500001 275.275 382.5571750000001 275.275 387.00787125V612.8197075C275.275 617.2691525 277.63861125 621.38451375 281.48245125 623.62675375L475.03581125 736.5332975zM300.3 394.19505125V589.25491625L468.82836 491.956465V295.8868412500001L300.3 394.19505125zM566.30949375 562.6846224999999L481.34086 513.628115L311.085775 611.92506375L396.60996375 661.81240125L396.110715 660.94903875L566.30949375 562.6846224999999zM591.33449375 577.1328062499999L420.51384375 675.7575825L481.34086 711.23927875L651.5946937499999 611.9238125L591.33449375 577.1328062499999zM662.38046875 589.25491625L493.85336 491.9552137500001V295.8868412500001L662.38046875 394.19505125V589.25491625zM487.9875 913.4125C406.320915 913.4125 326.4886625 889.19555725 258.5858275 843.82423125C190.6829925 798.452655 137.75887125 733.9644812500001 106.506274875 658.5153574999999C75.25392875 583.0649825 67.076884875 500.0420425 83.00917625 419.944525C98.941467625 339.8470075 138.26813 266.2735075000001 196.01456875 208.52706875C253.7610075 150.77937875 327.33575875 111.4538425 407.432025 95.52167625C487.5295425 79.58951 570.5524824999999 87.7664287500002 646.0028574999999 119.0189C721.4519812499999 150.27137125 785.9401549999999 203.1954925000001 831.31173125 271.0983275000001C875.7286037499999 337.5734862500001 899.87272375 415.480065 900.86871875 495.349855L929.58991125 466.62741125C934.4760425 461.7412800000001 942.3989574999998 461.7412800000001 947.2850887499998 466.62741125C952.17122 471.5135425 952.17122 479.4364575000001 947.2850887499998 484.32258875L897.2350887499999 534.37258875C892.3489574999999 539.25872 884.4260425 539.25872 879.5399112499999 534.37258875L829.48991125 484.32258875C824.6037799999999 479.4364575000001 824.6037799999999 471.5135425 829.48991125 466.62741125C834.3760425 461.7412800000001 842.2989574999999 461.7412800000001 847.1850887499999 466.62741125L875.839965 495.2822875C874.83270875 420.38621625 852.1588075 347.341995 810.504695 285.0009662500001C767.88336625 221.2134925 707.30284625 171.4975762500002 636.42579 142.1382462500001C565.54873375 112.7801675000001 487.55707 105.09874375 412.3144025 120.06619625C337.071735 135.0323975 267.95643875 171.97555375 213.70974625 226.2222462500002C159.46305375 280.4689387500001 122.520022625 349.5842350000001 107.553320875 424.8269025C92.586619125 500.0695700000001 100.268042875 578.06123375 129.62574625 648.93829C158.98507625 719.81534625 208.7009925 780.394615 272.48846625 823.017195C336.27719125 865.63852375 411.27086 888.3875 487.9875 888.3875C494.89815375 888.3875 500.5 893.9895965000001 500.5 900.9C500.5 907.8104035 494.89815375 913.4125 487.9875 913.4125zM707.42046375 700.7C740.08059125 700.7 761.7810199999999 718.43897125 761.7810199999999 742.93594375C761.7810199999999 763.2099475 745.34084625 774.1909175000001 729.55883 777.5705437500001C745.34084625 782.216435 758.4927349999999 793.4088662500001 758.4927349999999 811.35929875C758.4927349999999 834.588755 737.231495 850.85 706.7635574999999 850.85C682.2140324999999 850.85 665.1169524999999 839.8690300000001 653.49909625 825.2969725L667.3091425 812.2038925C677.8296525 824.0294562500001 689.44750875 831.63205125 705.229525 831.63205125C722.7645425 831.63205125 735.91643125 821.9185975 735.91643125 808.402595C735.91643125 793.8305375 722.5455737499999 785.80627125 703.4752725 785.80627125L687.03635 786.0177325V767.011245H703.4752725C726.0528275 767.22270625 738.98449625 759.4086500000001 738.98449625 744.41492125C738.98449625 729.84286375 726.4907649999999 719.91794875 706.98252625 719.91794875C689.6664774999999 719.91794875 674.98055625 727.7307537500001 664.89798375 739.55756875L650.65 725.40843375C662.266605 711.47076 681.77484375 700.7 707.42046375 700.7zM849.1895912499999 700.7C886.6707849999999 700.7 913.4125 731.7435125 913.4125 775.8801050000001C913.4125 819.8064875 886.6707849999999 850.85 849.1895912499999 850.85C811.2692087499998 850.85 784.7464624999999 819.8064875 784.7464624999999 775.8801050000001C784.7464624999999 731.7435125 811.2692087499998 700.7 849.1895912499999 700.7zM849.1895912499999 720.33962C824.6388149999999 720.33962 807.3227662499999 743.3588662500001 807.3227662499999 775.8801050000001C807.3227662499999 808.402595 824.6388149999999 831.21038 849.1895912499999 831.21038C873.51889625 831.21038 890.6159762499999 808.402595 890.6159762499999 775.8801050000001C890.6159762499999 743.3588662500001 873.51889625 720.33962 849.1895912499999 720.33962z" />
    <glyph glyph-name="accept-13"
      unicode="&#xE004;"
      horiz-adv-x="1232" d="M116.84211 516.4474700000001C90.1131 546.5175099999999 46.776114 546.5175099999999 20.04695 516.4474700000001C-6.6823064 486.37666 -6.6823064 437.62334 20.04695 407.55253L362.26883 22.5532999999999C388.99861 -7.5152 432.3349800000001 -7.5152 459.06399 22.5532999999999L1211.9569 869.55253C1238.6836 899.62334 1238.6836 948.376891 1211.9569 978.447239C1185.2225 1008.5175947 1141.8869 1008.5175947 1115.1602 978.447239L410.66641 185.8933999999999L116.84211 516.4474700000001z" />
    <glyph glyph-name="accept"
      unicode="&#xE005;"
      horiz-adv-x="1251.25" d="M83.448990625 424.702403125C19.5778708125 489.624760625 116.6890725 588.334621875 180.559754375 523.412264375L465.602011875 233.6771937499999L1068.33601875 914.718805C1128.59621875 982.7821128125 1230.554325 889.51737875 1170.2816125 821.4537581249999L516.7262099999999 83.00166875C489.914425 55.74944375 446.42723125 55.74944375 419.61544625 83.00166875L83.448990625 424.702403125z" />
    <glyph glyph-name="account-28"
      unicode="&#xE006;"
      horiz-adv-x="1001" d="M500.5 891.515625C405.480075 891.515625 328.453125 814.4877365625 328.453125 719.46875C328.453125 624.4488249999999 405.480075 547.421875 500.5 547.421875C595.5199250000001 547.421875 672.546875 624.4488249999999 672.546875 719.46875C672.546875 814.4877365625 595.5199250000001 891.515625 500.5 891.515625zM359.734375 719.46875C359.734375 797.211415 422.756709375 860.234375 500.5 860.234375C578.243290625 860.234375 641.265625 797.211415 641.265625 719.46875C641.265625 641.7254593749999 578.243290625 578.703125 500.5 578.703125C422.756709375 578.703125 359.734375 641.7254593749999 359.734375 719.46875zM265.890625 237.7375000000001C265.890625 374.946446875 371.64001875 484.859375 500.5 484.859375C629.3599812499999 484.859375 735.109375 374.946446875 735.109375 237.7375000000001V125.125H766.390625V237.7375000000001C766.390625 390.7685031250001 648.056784375 516.140625 500.5 516.140625C352.943215625 516.140625 234.609375 390.7685031250001 234.609375 237.7375000000001V125.125H265.890625V237.7375000000001z" />
    <glyph glyph-name="account-32"
      unicode="&#xE007;"
      horiz-adv-x="1001" d="M500.5 961.8984375C392.52338125 961.8984375 304.9921875 874.3666181250001 304.9921875 766.390625C304.9921875 658.41400625 392.52338125 570.8828125 500.5 570.8828125C608.47661875 570.8828125 696.0078125 658.41400625 696.0078125 766.390625C696.0078125 874.3666181250001 608.47661875 961.8984375 500.5 961.8984375zM351.9140625 766.390625C351.9140625 848.4522921875 418.43676875 914.9765625 500.5 914.9765625C582.5632312500001 914.9765625 649.0859375 848.4522921875 649.0859375 766.390625C649.0859375 684.32739375 582.5632312500001 617.8046875 500.5 617.8046875C418.43676875 617.8046875 351.9140625 684.32739375 351.9140625 766.390625zM242.4296875 215.8406249999999C242.4296875 360.3412312500001 358.21410625 477.0390625 500.5 477.0390625C642.78589375 477.0390625 758.5703125 360.3412312500001 758.5703125 215.8406249999999V93.84375C758.5703125 80.88705625 769.07455625 70.3828125 782.03125 70.3828125C794.98794375 70.3828125 805.4921875 80.88705625 805.4921875 93.84375V215.8406249999999C805.4921875 385.7666312500001 669.18726875 523.9609375 500.5 523.9609375C331.81273125 523.9609375 195.5078125 385.7666312500001 195.5078125 215.8406249999999V93.84375C195.5078125 80.88705625 206.0117434375 70.3828125 218.96875 70.3828125C231.9257565625 70.3828125 242.4296875 80.88705625 242.4296875 93.84375V215.8406249999999z" />
    <glyph glyph-name="address-billing"
      unicode="&#xE008;"
      horiz-adv-x="1001" d="M869.6187500000001 554.7208333333333L748.6645833333333 667.3333333333333V792.4583333333333C748.6645833333333 802.8854166666666 742.4083333333334 809.1416666666667 731.98125 809.1416666666667S715.2979166666668 800.8 715.2979166666668 792.4583333333333V696.5291666666667L540.1229166666668 861.2770833333334C517.1833333333335 882.13125 483.8166666666668 882.13125 460.8770833333335 861.2770833333334L135.5520833333334 554.7208333333333C129.2958333333334 548.4645833333334 129.2958333333334 538.0374999999999 135.5520833333334 531.78125S152.2354166666667 525.525 158.4916666666667 531.78125L193.94375 565.1479166666667V187.6875C193.94375 154.3208333333332 218.96875 129.2958333333334 250.25 129.2958333333334H379.5458333333334H396.2291666666667H604.7708333333334H623.5395833333333H752.8354166666668C786.2020833333335 129.2958333333334 811.2270833333333 156.40625 811.2270833333333 187.6875V565.1479166666667L846.6791666666668 531.78125C852.9354166666667 525.525 863.3625000000001 525.525 869.6187500000001 531.78125S875.875 548.4645833333334 869.6187500000001 554.7208333333333zM590.1729166666668 162.6624999999999H414.9979166666667V458.7916666666666C414.9979166666667 471.3041666666667 425.425 483.8166666666666 440.0229166666667 483.8166666666666H565.1479166666667C577.6604166666667 483.8166666666666 590.1729166666667 473.3895833333332 590.1729166666667 458.7916666666666V162.6624999999999zM777.8604166666667 187.6875C777.8604166666667 173.0895833333333 765.3479166666666 162.6624999999999 752.8354166666666 162.6624999999999H623.5395833333332V458.7916666666666C623.5395833333332 490.0729166666666 598.5145833333332 517.1833333333334 565.1479166666666 517.1833333333334H440.0229166666666C408.7416666666666 517.1833333333334 381.6312499999999 492.1583333333334 381.6312499999999 458.7916666666666V162.6624999999999H250.25C235.6520833333334 162.6624999999999 225.225 175.175 225.225 187.6875V594.34375L481.73125 838.3375C492.1583333333334 846.6791666666667 508.8416666666668 846.6791666666667 519.2687500000001 838.3375L777.8604166666668 594.34375V187.6875z" />
    <glyph glyph-name="address-shipping"
      unicode="&#xE009;"
      horiz-adv-x="1001" d="M794.54375 702.7854166666666L529.6958333333333 857.10625C510.9270833333334 867.5333333333333 490.0729166666667 867.5333333333333 471.3041666666667 857.10625L206.45625 702.7854166666666C187.6875 692.3583333333333 177.2604166666667 673.5895833333333 177.2604166666667 652.7354166666667V346.1791666666667C177.2604166666667 325.3250000000001 187.6875 306.55625 206.45625 296.1291666666667L471.3041666666667 143.8937500000001C490.0729166666667 133.4666666666667 510.9270833333334 133.4666666666667 529.6958333333334 143.8937500000001L794.54375 296.1291666666667C813.3125 306.55625 823.7395833333334 325.3250000000001 823.7395833333334 346.1791666666667V652.7354166666667C823.7395833333334 673.5895833333334 811.2270833333333 692.3583333333333 794.54375 702.7854166666666zM483.8166666666667 173.0895833333333L221.0541666666667 325.3249999999998C212.7125 329.4958333333333 208.5416666666667 337.8374999999999 208.5416666666667 348.2645833333333V650.65L483.8166666666667 492.1583333333334V173.0895833333333zM225.225 677.7604166666666L487.9875 829.9958333333334C496.3291666666667 834.1666666666667 506.75625 834.1666666666667 513.0124999999999 829.9958333333334L775.775 677.7604166666666L500.5 519.26875L225.225 677.7604166666666zM713.2125000000001 606.85625V287.7874999999999L619.3687500000001 233.5666666666665V552.6354166666666L713.2125000000001 606.85625zM515.0979166666667 173.0895833333333V492.1583333333334L588.0875 533.8666666666667V214.7979166666666L515.0979166666667 173.0895833333333zM792.4583333333334 348.2645833333333C792.4583333333334 339.9229166666667 788.2875 329.4958333333333 779.9458333333333 325.3250000000001L746.5791666666667 306.55625V623.5395833333332L792.4583333333334 650.65V348.2645833333333z" />
    <glyph glyph-name="angel-down"
      unicode="&#xE00A;"
      horiz-adv-x="1668.3333333333335" d="M834.1666666666667 41.7083333333333C802.1346666666667 41.7083333333333 770.1026666666667 53.8871666666666 745.745 78.4116666666665L78.4116666666666 745.7449999999999C29.5295 794.6271666666667 29.5295 873.8729999999999 78.4116666666666 922.7551666666666S206.5396666666667 971.6373333333332 255.4218333333333 922.7551666666666L834.1666666666667 343.8435L1413.0783333333336 922.7551666666666C1461.9605000000001 971.6373333333333 1541.2063333333335 971.6373333333333 1590.0885000000003 922.7551666666666S1638.9706666666668 794.6271666666667 1590.0885000000003 745.745L922.7551666666668 78.4116666666668C898.2306666666668 53.8871666666666 866.1986666666668 41.7083333333333 834.1666666666667 41.7083333333333z" />
    <glyph glyph-name="angel-left"
      unicode="&#xE00B;"
      horiz-adv-x="600.5999999999999" d="M500.6001 975.975C519.8193 975.975 539.0385 968.7678 553.6531 953.8529C582.9824 924.5236 582.9824 876.9761 553.6531 847.6468L206.4062 500.5L553.6530999999999 153.153C582.9824 123.8237 582.9824 76.2761999999999 553.6530999999999 46.9469S476.7762999999999 17.6176 447.447 46.9469L47.047 447.3469C17.7177 476.6762 17.7177 524.2237 47.047 553.4529L447.447 953.8529C462.1617 968.7678 481.4809999999999 975.975 500.6001 975.975z" />
    <glyph glyph-name="angel-right"
      unicode="&#xE00C;"
      horiz-adv-x="600.5999999999999" d="M100.1 25.0250000000001C80.8808 25.0250000000001 61.6616 32.3323000000001 47.047 47.0470000000001C17.7177 76.3763 17.7177 123.9238000000002 47.047 153.2531000000001L394.2939 500.5L47.047 847.847C17.7177 877.1763 17.7177 924.7238 47.047 954.0531S123.9238 983.3824 153.2531 954.0531L553.6530999999999 553.6531C582.9824 524.3238 582.9824 476.7763 553.6530999999999 447.447L153.2531 47.0469999999999C138.5384 32.3323000000001 119.3192 25.0250000000001 100.1 25.0250000000001z" />
    <glyph glyph-name="angel-top"
      unicode="&#xE00D;"
      horiz-adv-x="1668.3333333333335" d="M834.3335000000001 959.2916666666666C866.3655000000001 959.2916666666666 898.3975000000002 947.1128333333334 922.5883333333334 922.5883333333334L1589.9216666666669 255.255C1638.8038333333334 206.3728333333334 1638.8038333333334 126.9601666666666 1589.9216666666669 78.078S1461.793666666667 29.1958333333332 1412.9115000000004 78.078L834.3335000000001 657.3233333333333L255.255 78.2448333333333C206.3728333333334 29.3626666666667 127.127 29.3626666666667 78.2448333333334 78.2448333333333S29.3626666666667 206.5396666666667 78.2448333333334 255.4218333333335L745.5781666666668 922.7551666666668C770.2695 947.1128333333334 802.3015 959.2916666666666 834.3335000000001 959.2916666666666z" />
    <glyph glyph-name="approved"
      unicode="&#xE00E;"
      horiz-adv-x="1201.1999999999998" d="M195.033839 513.257745C173.316143 537.3137770000001 138.105968 537.3137770000001 116.388272 513.257745C94.6706761 489.201713 94.6706761 450.198749 116.388272 426.1427170000001L394.44405 118.142024C416.160745 94.0859920000002 451.371921 94.0859920000002 473.089617 118.142024L1084.81373 795.741947C1106.52542 819.79898 1106.52542 858.801944 1084.81373 882.857976C1063.09203 906.9141081 1027.8868599999998 906.9141081 1006.16516 882.857976L433.766333 248.815567L195.033839 513.257745z" />
    <glyph glyph-name="arrow-bottom-6"
      unicode="&#xE00F;"
      horiz-adv-x="1751.75" d="M875.875 25.025C850.85 25.025 825.8249999999999 37.5375 813.3125 50.0500000000001L62.5625 800.8000000000001C25.025 838.3375000000001 25.025 900.9 62.5625 938.4375S162.6625 975.975 200.2 938.4375L875.875 262.7625L1564.0625 950.95C1601.6000000000001 988.4875 1664.1625000000001 988.4875 1701.7 950.95S1739.2375 850.8499999999999 1701.7 813.3125L950.95 62.5625C925.925 37.5375 900.9 25.025 875.875 25.025z" />
    <glyph glyph-name="arrow-down-6"
      unicode="&#xE010;"
      horiz-adv-x="1501.5" d="M1501.5 1001L750.75 0L0 1001H1501.5z" />
    <glyph glyph-name="arrow-left-12"
      unicode="&#xE011;"
      horiz-adv-x="572" d="M500.5 993.85C514.8000000000001 993.85 536.25 986.7 543.4 972.4C572 950.95 572 908.05 543.4 886.6L164.45 500.5L550.5500000000001 114.4C579.15 85.8 579.15 50.05 550.5500000000001 21.4499999999999C521.9499999999999 -7.1500000000001 486.2 -7.1500000000001 457.6 21.4499999999999L28.6 450.4499999999999C0 479.0500000000001 0 521.95 28.6 543.4L457.6 972.4C464.75 986.7 486.2 993.85 500.5 993.85z" />
    <glyph glyph-name="arrow-left-20"
      unicode="&#xE012;"
      horiz-adv-x="546" d="M500.5 4.5500000000001C491.4 4.5500000000001 477.75 9.1000000000001 473.2 18.2L18.2 473.2C0 491.4000000000001 0 514.1500000000001 18.2 532.3500000000001L473.2 987.3500000000003C491.4 1005.5500000000002 514.15 1005.5500000000002 532.35 987.3500000000003C550.5500000000001 969.15 550.5500000000001 946.4 532.35 928.2000000000002L104.65 500.5L532.35 72.8000000000001C550.55 54.6000000000001 550.55 31.8500000000001 532.35 13.65C523.25 9.1 509.6 4.5500000000001 500.5 4.5500000000001z" />
    <glyph glyph-name="arrow-left-6"
      unicode="&#xE013;"
      horiz-adv-x="625.625" d="M500.5 12.5124999999999C475.475 12.5124999999999 437.9375 25.0249999999999 425.425 50.05L50.05 425.425C0 462.9625 0 538.0374999999999 50.05 575.575L425.425 950.95C462.9625 1001 538.0375 1001 575.5749999999999 950.95C625.625 913.4125 625.625 838.3375 575.5749999999999 800.8L287.7875 500.5L588.0874999999999 200.1999999999999C625.625 162.6625 625.625 87.5875 575.5749999999999 50.0500000000001C563.0625 25.025 525.525 12.5124999999999 500.5 12.5124999999999z" />
    <glyph glyph-name="arrow-right-12"
      unicode="&#xE014;"
      horiz-adv-x="572" d="M71.5 7.15C57.2 7.15 35.75 14.3 28.6 28.6C0 57.2000000000001 0 92.9500000000001 28.6 121.5500000000001L407.55 500.5L28.6 886.6C0 908.05 0 950.95 28.6 972.4C50.05 1001 92.95 1001 114.4 972.4L543.4 543.4C572 521.95 572 479.0500000000001 543.4 457.6L114.4 28.6C107.25 14.3 85.8 7.15 71.5 7.15z" />
    <glyph glyph-name="arrow-right-20"
      unicode="&#xE015;"
      horiz-adv-x="546" d="M45.5 4.5500000000001C36.4 4.5500000000001 22.75 9.1000000000001 18.2 18.2C0 36.4 0 59.15 18.2 77.3500000000001L441.35 500.5L18.2 928.2C0 941.85 0 969.15 18.2 982.8C31.85 1001 59.15 1001 72.8 982.8L527.8 527.8C546 509.6 546 486.85 527.8 468.65L72.8 13.6499999999999C68.25 9.1 54.6 4.5500000000001 45.5 4.5500000000001z" />
    <glyph glyph-name="arrow-right-6"
      unicode="&#xE016;"
      horiz-adv-x="500.5" d="M0 917.5833333333334L500.5 500.5L0 83.4166666666666L0 917.5833333333334z" />
    <glyph glyph-name="arrow-right-8"
      unicode="&#xE017;"
      horiz-adv-x="600.5999999999999" d="M100.1 20.02C80.08 20.02 60.06 30.03 50.05 40.04C20.02 70.0699999999999 20.02 120.12 50.05 150.1499999999999L390.39 500.5L50.05 850.85C20.02 880.88 20.02 930.93 50.05 960.96S130.13 990.99 160.16 960.96L560.56 560.56C590.5899999999999 530.53 590.5899999999999 480.48 560.56 450.45L160.16 50.0500000000001C140.14 30.0300000000001 120.12 20.02 100.1 20.02z" />
    <glyph glyph-name="arrow-right-filled-4"
      unicode="&#xE018;"
      horiz-adv-x="667.3333333333334" d="M-0.0000437550447 1001L667.3333333333334 500.5L0 0L-0.0000437550447 1001z" />
    <glyph glyph-name="arrow-thiny"
      unicode="&#xE019;"
      horiz-adv-x="533.8666666666667" d="M467.1333333333333 103.0963266666666L66.7333333333333 503.4976613333333L467.1333333333333 903.8976613333334" />
    <glyph glyph-name="arrow-top-6"
      unicode="&#xE01A;"
      horiz-adv-x="1751.75" d="M1626.625 25.025C1601.6000000000001 25.025 1576.575 37.5375 1564.0625 50.0500000000001L875.875 738.2375L187.6875 62.5625C150.15 25.025 87.5875 25.025 50.05 62.5625S12.5125 162.6625 50.05 200.1999999999999L800.8000000000001 950.95C838.3375 988.4875 900.9 988.4875 938.4375 950.95L1689.1875 200.1999999999999C1726.7250000000001 162.6625 1726.7250000000001 100.1 1689.1875 62.5625C1676.675 37.5375 1651.6499999999999 25.025 1626.625 25.025z" />
    <glyph glyph-name="availability-16"
      unicode="&#xE01B;"
      horiz-adv-x="1001" d="M308.8310225 791.9390645833333C308.8310225 809.2150733333333 322.83626375 823.2203145833333 340.1122725000001 823.2203145833333H597.1006708333334C614.3804333333334 823.2203145833333 628.3819208333334 809.2150733333333 628.3819208333334 791.9390645833333V653.6121258333333H811.2604500000001C828.5360416666666 653.6121258333333 842.5417000000001 639.6068845833333 842.5417000000001 622.3308758333333V410.3224125C842.5417000000001 393.0468208333333 828.5360416666666 379.0411625 811.2604500000001 379.0411625H340.1122725000001C322.83626375 379.0411625 308.8310225 393.0468208333333 308.8310225 410.3224125V622.3308758333333V622.3312929166666V791.9390645833333zM371.3935225000001 760.6578145833333V653.6125429166666H565.8194208333334V760.6578145833333H371.3935225000001zM371.3935225000001 591.0496258333333V441.6036625H779.9792000000001V591.0496258333333H371.3935225000001zM125.9600008333334 780.8196229166667C108.6839920833333 780.8196229166667 94.6787508333333 766.8143816666667 94.6787508333333 749.5383729166667C94.6787508333333 732.2619470833333 108.6839920833333 718.2571229166667 125.9600008333334 718.2571229166667H180.3422454166667V283.1161666666667C180.3422454166667 265.840575 194.3470695833334 251.8349166666667 211.6234954166667 251.8349166666667H896.9293666666667C914.2049583333334 251.8349166666667 928.2106166666669 265.840575 928.2106166666669 283.1161666666667C928.2106166666669 300.3917583333333 914.2049583333334 314.3974166666667 896.9293666666667 314.3974166666667H242.9047454166667V749.5383729166667C242.9047454166667 766.8143816666667 228.8995041666667 780.8196229166667 211.6234954166667 780.8196229166667H125.9600008333334zM854.0907375 198.3106124999999C854.0907375 174.8955541666667 834.9132458333335 155.9099208333332 811.2604500000001 155.9099208333332C787.6034833333334 155.9099208333332 768.4259916666667 174.8955541666667 768.4259916666667 198.3106124999999C768.4259916666667 221.7298416666665 787.6034833333334 240.715475 811.2604500000001 240.715475C834.9132458333335 240.715475 854.0907375 221.7298416666665 854.0907375 198.3106124999999zM297.28323625 155.9099208333332C320.9385345833333 155.9099208333332 340.114775 174.8955541666667 340.114775 198.3106124999999C340.114775 221.7298416666665 320.9385345833333 240.715475 297.28323625 240.715475C273.6279379166667 240.715475 254.4512804166667 221.7298416666665 254.4512804166667 198.3106124999999C254.4512804166667 174.8955541666667 273.6279379166667 155.9099208333332 297.28323625 155.9099208333332z" />
    <glyph glyph-name="availability-80"
      unicode="&#xE01C;"
      horiz-adv-x="1001" d="M364.64302875 578.9821537500001H747.2652687499999V406.8076512500001H364.64302875V578.9821537500001zM364.64302875 716.7222562500001H573.34652375V578.983405H364.64302875V716.72225625zM190.73054 682.28785625H260.2975375V303.5057025H816.8397737499998M769.53751875 234.63565125C769.53751875 222.64617375 759.6851762499999 212.7125000000001 747.26652 212.7125000000001C734.8466125 212.7125000000001 724.9955212499999 222.64617375 724.9955212499999 234.63565125C724.9955212499999 246.6238775000001 734.8466125 256.5575512500001 747.26652 256.5575512500001C759.6851762499999 256.5575512500001 769.53751875 246.6238775000001 769.53751875 234.63565125zM352.13803625 234.63565125C352.13803625 222.64617375 342.28569375 212.7125000000001 329.86578625 212.7125000000001C317.44713 212.7125000000001 307.5947875 222.64617375 307.5947875 234.63565125C307.5947875 246.6238775000001 317.44713 256.5575512500001 329.86578625 256.5575512500001C342.28569375 256.5575512500001 352.13803625 246.6238775000001 352.13803625 234.63565125z" />
    <glyph glyph-name="calendar-16"
      unicode="&#xE01D;"
      horiz-adv-x="1001" d="M771.3427944444445 872.49162H736.1465222222222V924.358991111111C736.1465222222222 929.9362294444444 733.8664666666667 935.2854622222222 729.8124166666666 939.2294022222222C725.7528055555556 943.1733422222222 720.2528666666667 945.388888888889 714.5138000000001 945.388888888889C708.7747333333334 945.388888888889 703.2747944444445 943.1733422222222 699.2151833333334 939.2294022222222C695.1555722222222 935.2854622222222 692.8810777777778 929.9362294444444 692.8810777777778 924.358991111111V872.49162H306.916053888889V924.358991111111C306.916053888889 929.9362294444444 304.6365544444444 935.2854622222222 300.5791677777778 939.2294022222222C296.5223372222223 943.1733422222222 291.0196177777778 945.388888888889 285.2816633333334 945.388888888889C279.544265 945.388888888889 274.0415455555556 943.1733422222222 269.984158888889 939.2294022222222C265.9273283333333 935.2854622222222 263.6478288888889 929.9362294444444 263.6478288888889 924.358991111111V872.49162H229.6538688888889C183.5127738888889 872.4399016666666 139.2763594444445 854.5998572222222 106.6487644444444 822.8842844444445C74.0211694444445 791.1687116666667 55.6667222222222 748.1685322222222 55.6111111111111 703.3148344444444V224.7856722222222C55.6667222222222 179.9353111111111 74.0217255555556 136.9312388888889 106.6493205555556 105.2162222222221C139.2763594444445 73.5012055555555 183.5127738888889 55.6611611111111 229.6538688888889 55.6111111111111H771.3427944444445C817.4888944444446 55.6611611111111 861.7219722222222 73.5012055555555 894.3490111111112 105.2162222222221C926.9760500000002 136.9312388888889 945.3332777777778 179.9353111111111 945.388888888889 224.7856722222222V703.3148344444444C945.3332777777778 748.1685322222222 926.9760500000002 791.1692677777778 894.3490111111112 822.8848405555556C861.7219722222222 854.5998572222222 817.4888944444446 872.4404577777777 771.3427944444445 872.49162zM229.6555372222222 830.4312683333333H263.6489411111112V787.9705166666666C263.6489411111112 782.3927222222222 265.9284405555556 777.0440455555555 269.9852711111111 773.1001055555555C274.0426577777778 769.1561655555556 279.5453772222223 766.9400627777777 285.2827755555556 766.9400627777777C291.02073 766.9400627777777 296.5234494444445 769.1561655555556 300.58028 773.1001055555555C304.6376666666667 777.0440455555555 306.9171661111111 782.3927222222222 306.9171661111111 787.9705166666666V830.430156111111H692.8810777777778V787.9694044444444C692.8810777777778 782.39161 695.1555722222222 777.0429333333334 699.2151833333334 773.0989933333333C703.2747944444445 769.1550533333334 708.7747333333334 766.9395066666666 714.5138000000001 766.9395066666666C720.2528666666667 766.9395066666666 725.7528055555556 769.1550533333334 729.8124166666666 773.0989933333333C733.8664666666667 777.0429333333334 736.1465222222222 782.39161 736.1465222222222 787.9694044444444V830.4295999999999H771.3427944444445C806.0163222222222 830.3917844444444 839.2550833333333 816.9878383333333 863.7684611111112 793.1579211111111C888.2874 769.3274477777777 902.0789555555556 737.0173922222223 902.1178833333335 703.3148344444444V627.9328611111112H98.87878V703.3148344444444C98.9199322222222 737.0173922222223 112.7109316666667 769.3285599999999 137.2276461111112 793.1590333333334C161.7438044444445 816.9900627777778 194.9853461111111 830.394008888889 229.6555372222222 830.4312683333333zM771.3427944444445 97.6697944444444H229.6538688888889C194.9831216666667 97.7087222222223 161.7438044444445 111.111 137.22709 134.9403611111111C112.7103755555556 158.7752833333333 98.91882 191.0853388888888 98.8782238888889 224.7856722222222V585.8736216666666H902.1178833333335V224.7856722222222C902.0789555555556 191.0853388888888 888.2874 158.7752833333333 863.7684611111112 134.9459222222222C839.2550833333333 111.111 806.0163222222222 97.7087222222223 771.3427944444445 97.6697944444444z" />
    <glyph glyph-name="cart-12"
      unicode="&#xE01E;"
      horiz-adv-x="1001" d="M632.5752766666667 776.8869441666667H682.4909758333334C729.0508225 776.8869441666667 767.4783783333334 739.28855 769.9783758333334 691.2872633333334L792.3290375 262.146885C795.0267325 210.3551449999999 755.0776566666667 166.8333333333333 704.8416375 166.8333333333333H337.8700325000001C286.7047516666667 166.8333333333333 246.42618 211.9075291666667 250.5394558333334 264.5617974999999L284.0629458333334 693.7021758333333C287.7332791666667 740.6874475 325.7362441666667 776.8869441666667 371.3935225000001 776.8869441666667H408.4705625000001L408.473065 788.1632091666667C409.2104683333333 819.7747891666667 421.1498958333334 851.1052549999999 439.9002941666667 874.8414675C458.6114866666667 898.52763 486.6853658333334 917.5833333333334 520.50999 917.5833333333334C584.2303133333334 917.5833333333334 632.5752766666667 861.3221283333334 632.5752766666667 796.2738116666667V776.8869441666667zM408.4530450000001 713.778065H371.3935225000001C357.5905666666668 713.778065 346.1007550000001 702.8337983333333 344.9913133333334 688.6287741666666L311.4678233333334 259.4883958333333C310.2240808333334 243.5691591666666 322.4012458333334 229.9422125 337.8700325000001 229.9422125H704.8416375C720.02931 229.9422125 732.1063750000001 243.1003574999999 731.2913941666668 258.7576658333334L729.5054433333333 293.0510916666666H439.0360975C422.1559008333334 293.0510916666666 408.4722308333334 307.1785383333334 408.4722308333334 324.6059483333333C408.4722308333334 342.0325241666667 422.1559008333334 356.1599708333333 439.0360975 356.1599708333333H726.2179925L708.9407325 687.8988783333333C708.1849775000001 702.4108758333333 696.5667041666667 713.778065 682.4909758333334 713.778065H632.5752766666667V619.1143291666666C632.5752766666667 601.6869191666667 618.8916066666667 587.5594725 602.0122441666666 587.5594725C585.1320475 587.5594725 571.4483775 601.6869191666667 571.4483775 619.1143291666666V713.778065H469.59913V619.1143291666666C469.59913 601.6869191666667 455.91546 587.5594725 439.0360975 587.5594725C422.1559008333334 587.5594725 408.473065 601.6869191666667 408.473065 619.1143291666666V707.4067L408.4588841666667 707.8896824999999L408.4580500000001 708.0331591666666L408.4563816666667 708.2316908333332L408.4555475 708.9190441666667L408.4530450000001 713.778065zM469.59913 776.8869441666667H571.4483775V796.2738116666667C571.4483775 830.3662033333333 546.8146016666667 854.4744541666666 520.50999 854.4744541666666C510.0353591666667 854.4744541666666 497.9382741666667 848.4592783333333 487.2701166666667 834.95412C476.7129033333333 821.5899358333334 470.0737708333334 803.7604575 469.59913 786.9870341666667V776.8869441666667z" />
    <glyph glyph-name="cart-18"
      unicode="&#xE01F;"
      horiz-adv-x="1001" d="M639.5333388888889 750.75V790.9134566666667C639.5333388888889 863.8596633333333 574.1179888888889 917.5833333333334 500.5027805555556 917.5833333333334C461.5927983333333 917.5833333333334 427.3168900000001 899.8361594444444 402.947545 874.9362844444445C378.7350233333334 850.1965694444444 362.5260527777778 816.6113511111112 361.5239405555556 781.9467211111111C361.4916861111111 780.8189277777778 361.4750027777778 779.6883538888889 361.4750027777778 778.5555555555555C361.4750027777778 778.0678461111111 361.4877933333334 777.5829172222222 361.5122622222223 777.1018811111111V750.75H314.0709794444445C279.2256133333334 750.75 250.2461072222223 723.9404394444443 247.5395144444445 689.2007344444444L208.1090122222223 183.1385111111112C205.0876605555556 144.3553222222222 235.7421733333334 111.2222222222222 274.6410333333334 111.2222222222222H712.2782333333333C750.494188888889 111.2222222222222 780.9023444444445 143.2542222222222 778.922588888889 181.4201277777777L752.6352166666667 687.4784583333333C750.7889277777779 722.9411077777777 721.4985555555556 750.75 685.9908611111111 750.75H639.5333388888889zM442.6911377777778 836.0385366666667C458.4151794444445 852.1045866666667 478.9601483333333 861.9722222222222 500.5027805555556 861.9722222222222C549.7419705555556 861.9722222222222 583.9222277777778 827.1696766666666 583.9222277777778 790.9134566666667V750.75H417.1233733333334V780.7043688888889C417.772355 799.3485499999999 426.9131533333334 819.9174316666666 442.6911377777778 836.0385366666667zM583.9222277777778 695.1388888888889V611.7222222222222C583.9222277777778 596.36577 596.3679944444445 583.9166666666666 611.7277833333334 583.9166666666666C627.0820111111111 583.9166666666666 639.5333388888889 596.36577 639.5333388888889 611.7222222222222V695.1388888888889H685.9908611111111C691.9078833333334 695.1388888888889 696.7905388888889 690.5042588888889 697.0964 684.59391L718.2175 278.0555555555556H389.2805583333334C373.9241061111112 278.0555555555556 361.4750027777778 265.6042277777778 361.4750027777778 250.25C361.4750027777778 234.8957722222222 373.9241061111112 222.4444444444444 389.2805583333334 222.4444444444444H721.1037166666667L723.3837722222222 178.533911111111C723.7174388888889 172.1719999999999 718.6457055555557 166.8333333333333 712.2782333333333 166.8333333333333H274.6410333333334C268.15789 166.8333333333333 263.0488972222223 172.3555166666666 263.5521777777778 178.8175277777778L302.98268 684.8808633333333C303.4336861111111 690.670536111111 308.2635111111111 695.1388888888889 314.0709794444445 695.1388888888889H361.5122622222223V611.7222222222222C361.5122622222223 596.36577 373.9613655555556 583.9166666666666 389.3178177777778 583.9166666666666C404.6748261111112 583.9166666666666 417.1233733333334 596.36577 417.1233733333334 611.7222222222222V695.1388888888889H583.9222277777778z" />
    <glyph glyph-name="cart-24"
      unicode="&#xE020;"
      horiz-adv-x="1001" d="M655.7884666666667 782.03125H692.7045125000001C724.8866625 782.03125 751.4298458333334 756.8294066666667 753.10235 724.6914675L780.4004541666667 199.1656333333334C782.1980833333334 164.5810833333334 754.6372166666667 135.5520833333333 720.0067875 135.5520833333333H268.6254404166667C233.3731400000001 135.5520833333333 205.5924704166667 165.5820833333332 208.3310395833334 200.725525L249.2806983333334 726.2521933333333C251.7335654166667 757.7353116666667 277.99646875 782.03125 309.5746820833334 782.03125H347.7415608333334C354.449095 810.9505570833333 369.9837808333334 837.95712 390.7528625000001 859.1779029166667C418.16775 887.1904708333334 456.7271041666667 907.15625 500.5041708333334 907.15625C577.3559458333334 907.15625 646.2622833333334 855.1088379166666 655.7884666666667 782.03125zM344.1383779166667 719.46875H311.5041095833334L270.87935875 198.1145833333333H717.8087583333333L714.5596791666667 260.6770833333333H354.5233358333333C337.2473270833334 260.6770833333333 323.2420858333334 274.6827416666667 323.2420858333334 291.9583333333333C323.2420858333334 309.233925 337.2473270833334 323.2395833333333 354.5233358333333 323.2395833333333H711.3064291666668L690.7233666666667 719.46875H656.9104208333333V625.625C656.9104208333333 608.3489912499999 642.9047625000001 594.34375 625.6291708333333 594.34375C608.3494083333334 594.34375 594.3479208333333 608.3489912499999 594.3479208333333 625.625V719.46875H406.7008779166667V625.625C406.7008779166667 608.3489912499999 392.6956366666667 594.34375 375.4196279166667 594.34375C358.1436191666667 594.34375 344.1383779166667 608.3489912499999 344.1383779166667 625.625V719.46875zM592.0247666666667 782.03125C582.9406916666667 815.8892408333334 547.9348875000001 844.59375 500.5041708333334 844.59375C476.2674583333334 844.59375 453.1527 833.4930770833333 435.4641958333334 815.41835375C425.6710791666667 805.4112733333333 418.1510666666668 793.8810045833334 413.2528400000001 782.03125H592.0247666666667z" />
    <glyph glyph-name="cart-32"
      unicode="&#xE021;"
      horiz-adv-x="1001" d="M678.180628125 806.7675240625H737.4241875C761.595209375 806.7675240625 781.5182374999999 787.8148403125 782.72569375 763.674786875L815.0110718750001 118.0053875C816.3061156250001 92.095128125 795.647978125 70.3828125 769.7095656250001 70.3828125H247.5200853125C221.1330996875 70.3828125 200.315740625 92.817725 202.2892746875 119.1315125L250.7145265625 764.802163125C252.4897375 788.4701825 272.2110015625 806.7675240625 295.9453371875 806.7675240625H357.2443875C362.35574375 843.2427128125 378.9942406250001 878.491989375 402.930653125 906.00885375C431.09941875 938.388075625 471.11439375 961.8984375 516.944553125 961.8984375C603.97211875 961.8984375 674.9086093750001 892.9967921875 678.180628125 806.7675240625zM355.63653125 759.8456490625H297.3964743750001L249.205831875 117.3046875H768.0641718749999L762.6525156250001 225.5127875H327.3395125C314.38281875 225.5127875 303.8788878125 236.0170312500001 303.8788878125 248.973725C303.8788878125 261.9304187500001 314.38281875 272.4346625 327.3395125 272.4346625H760.306421875L735.938328125 759.8456490625H678.29636875V628.17755C678.29636875 615.22085625 667.7921249999999 604.7166125 654.83543125 604.7166125C641.8787375 604.7166125 631.37449375 615.22085625 631.37449375 628.17755V759.8456490625H402.55840625V628.17755C402.55840625 615.22085625 392.0541625 604.7166125 379.09746875 604.7166125C366.140775 604.7166125 355.63653125 615.22085625 355.63653125 628.17755V759.8456490625zM631.2087031249999 806.7675240625C627.97735 867.0727690625 578.055603125 914.9765625 516.944553125 914.9765625C487.821709375 914.9765625 459.8719125 899.9706340625 438.33164375 875.2118375C421.424128125 855.7774225000001 409.537253125 831.465635 404.79814375 806.7675240625H631.2087031249999z" />
    <glyph glyph-name="check-2"
      unicode="&#xE022;"
      horiz-adv-x="1001" d="M681.5141666666666 436.6399074074075C735.1788888888888 485.5776851851851 768.9162962962962 556.2037962962963 768.9162962962962 634.615462962963C768.9162962962962 782.9117592592593 648.703611111111 903.0317592592594 500.4999999999999 903.0317592592594S232.0837037037037 782.819074074074 232.0837037037037 634.615462962963C232.0837037037037 556.2037962962963 265.8211111111111 485.485 319.4858333333333 436.6399074074075C319.4858333333333 436.6399074074075 319.4858333333333 436.6399074074075 319.4858333333333 436.6399074074075C319.4858333333333 436.6399074074075 319.4858333333333 436.6399074074075 319.4858333333333 436.6399074074075L187.4094444444444 172.4871296296296L306.6952777777778 217.2540740740741L351.4622222222222 97.9682407407408L472.7871296296296 367.5894444444445C472.7871296296296 367.5894444444445 472.7871296296296 367.5894444444445 472.7871296296296 367.5894444444445C481.8702777777777 366.6625925925927 491.1387962962963 366.2918518518519 500.5 366.2918518518519C509.8612037037037 366.2918518518519 519.1297222222222 366.7552777777778 528.2128703703703 367.5894444444445C528.2128703703703 367.5894444444445 528.2128703703703 367.5894444444445 528.2128703703703 367.5894444444445L649.5377777777777 97.9682407407408L694.3047222222222 217.2540740740742L813.5905555555555 172.4871296296298L681.5141666666666 436.6399074074075zM500.5 440.8107407407408C393.4486111111111 440.8107407407408 306.6952777777778 527.5640740740741 306.6952777777778 634.615462962963S393.4486111111111 828.4201851851852 500.5 828.4201851851852S694.3047222222223 741.6668518518519 694.3047222222223 634.615462962963C694.3047222222223 527.6567592592593 607.5513888888888 440.8107407407408 500.5 440.8107407407408zM487.6167592592593 594.4827777777778C459.9965740740741 618.2101851851852 433.0251851851852 637.9521296296296 405.4050000000001 661.6795370370371C398.7316666666667 653.0598148148148 390.9461111111111 645.5523148148148 384.365462962963 636.9325925925925L491.0461111111111 542.6717592592593L615.8003703703703 702.5537037037037C608.0148148148148 708.1148148148148 597.7267592592592 715.3442592592593 589.9412037037036 720.9053703703704C555.6476851851852 677.8067592592593 521.9102777777778 637.5813888888889 487.6167592592593 594.4827777777778z" />
    <glyph glyph-name="check-circle-n"
      unicode="&#xE023;"
      horiz-adv-x="1001" d="M722.5968750000001 706.95625L422.2968750000001 365.990625L278.4031250000001 509.884375C247.1218750000001 541.165625 197.0718750000001 494.2437499999999 228.3531250000001 459.834375L397.2718750000001 287.7875C409.7843750000002 275.275 431.6812500000001 275.275 447.3218750000001 287.7875L772.6468750000001 656.90625C803.928125 694.4437499999999 750.75 741.3656249999999 722.5968750000001 706.95625zM500.5 1001C225.225 1001 0 775.775 0 500.5C0 225.225 225.225 0 500.5 0C775.775 0 1001 225.225 1001 500.5C1001 775.775 775.775 1001 500.5 1001zM500.5 50.0500000000001C253.378125 50.0500000000001 50.05 253.3781250000001 50.05 500.5S253.378125 950.95 500.5 950.95S950.95 747.621875 950.95 500.5S747.6218749999999 50.0500000000001 500.5 50.0500000000001z" />
    <glyph glyph-name="check-circle"
      unicode="&#xE024;"
      horiz-adv-x="1001" d="M229.4119953125 462.602765625C197.4763415625 495.06331875 246.03203625 544.415746875 277.9673771875 511.95519375L420.48881875 367.088596875L721.855509375 707.6094025C751.985609375 741.6409 802.9646625 695.0086893749999 772.82830625 660.975940625L446.05185625 291.750834375C432.6447125000001 278.1247218750001 410.901115625 278.1247218750001 397.493971875 291.750834375L229.4119953125 462.602765625zM25.025 500.5A475.475 475.475 0 0 1 975.975 500.5A475.475 475.475 0 0 1 25.025 500.5" />
    <glyph glyph-name="check-form"
      unicode="&#xE025;"
      horiz-adv-x="1334.6666666666667" d="M89.0122566666667 404.399996C20.8830622 473.6505106666667 124.468344 578.940362 192.5970713333333 509.6898473333333L496.642146 200.64044L1139.55842 927.0834906666666C1203.8359666666668 999.6846392866667 1312.59128 900.2026366666666 1248.3003866666668 827.6014413333334L551.174624 39.91988C522.5753866666666 10.8508399999999 476.1890466666667 10.8508399999999 447.5898093333334 39.91988L89.0122566666667 404.399996z" />
    <glyph glyph-name="check"
      unicode="&#xE026;"
      horiz-adv-x="1201.1999999999998" d="M430.43 0C400.4 0 380.38 10.01 360.36 40.0400000000001L30.03 440.4400000000001C-10.01 480.4800000000001 0 550.55 40.04 580.5800000000002C80.08 620.6200000000001 150.15 610.6100000000001 180.18 570.5700000000002L440.44 260.2600000000002L1031.03 970.9700000000003C1071.07 1011.0100000000002 1131.13 1021.02 1171.17 980.9800000000002C1211.21 940.94 1221.22 880.8800000000001 1181.18 840.8400000000001L510.51 40.0400000000003C490.49 10.01 460.4599999999999 0 430.43 0z" />
    <glyph glyph-name="checkout-completing"
      unicode="&#xE027;"
      horiz-adv-x="1011.4270833333334" d="M380.5885416666667 428.553125H662.1197916666667C666.290625 428.553125 670.4614583333333 431.68125 670.4614583333333 436.8947916666666V551.5927083333333C670.4614583333333 555.7635416666667 667.3333333333334 559.9343749999999 662.1197916666667 559.9343749999999H544.29375V635.009375C544.29375 639.1802083333332 541.1656250000001 643.3510416666666 535.9520833333335 643.3510416666666H379.5458333333334C375.3750000000001 643.3510416666666 371.2041666666668 640.2229166666666 371.2041666666668 635.009375V436.8947916666666C373.2895833333334 431.68125 376.4177083333334 428.553125 380.5885416666667 428.553125zM654.8208333333333 444.19375H387.8875000000001V543.2510416666667H652.7354166666668V444.19375H654.8208333333333zM387.8875000000001 626.6677083333334H528.653125V558.8916666666667H387.8875000000001V626.6677083333334zM703.828125 412.9125H356.6062500000001V614.1552083333333C356.6062500000001 618.3260416666667 353.4781250000001 622.4968749999999 348.2645833333334 622.4968749999999H306.5562500000001C302.3854166666668 622.4968749999999 298.2145833333334 619.36875 298.2145833333334 614.1552083333333S301.3427083333334 605.8135416666667 306.5562500000001 605.8135416666667H339.9229166666668V405.6135416666667C339.9229166666668 401.4427083333334 343.0510416666667 397.271875 348.2645833333334 397.271875H367.0333333333334C363.9052083333334 392.0583333333334 361.8197916666668 385.8020833333334 361.8197916666668 378.5031250000001C361.8197916666668 359.7343750000001 377.4604166666668 345.1364583333334 395.1864583333334 345.1364583333334S428.5531250000002 360.7770833333334 428.5531250000002 378.5031250000001C428.5531250000002 384.7593750000001 426.4677083333334 391.0156250000001 423.3395833333335 397.271875H626.6677083333335C623.5395833333334 392.0583333333334 621.4541666666668 385.8020833333334 621.4541666666668 378.5031250000001C621.4541666666668 359.7343750000001 637.0947916666668 345.1364583333334 654.8208333333334 345.1364583333334C672.5468750000002 345.1364583333334 688.1875000000002 360.7770833333334 688.1875000000002 378.5031250000001C688.1875000000002 384.7593750000001 686.1020833333334 391.0156250000001 682.9739583333335 397.271875H701.7427083333334C705.9135416666669 397.271875 710.0843750000001 400.4 710.0843750000001 405.6135416666667S707.9989583333335 412.9125 703.828125 412.9125zM414.9979166666667 379.5458333333333C414.9979166666667 369.11875 406.65625 360.7770833333333 396.2291666666667 360.7770833333333S377.4604166666668 369.11875 377.4604166666668 379.5458333333333S385.8020833333334 398.3145833333333 396.2291666666667 398.3145833333333S414.9979166666667 388.9302083333334 414.9979166666667 379.5458333333333zM675.675 379.5458333333333C675.675 369.11875 667.3333333333334 360.7770833333333 656.90625 360.7770833333333S638.1375 369.11875 638.1375 379.5458333333333S646.4791666666667 398.3145833333333 656.90625 398.3145833333333C667.3333333333334 398.3145833333333 675.675 388.9302083333334 675.675 379.5458333333333z" />
    <glyph glyph-name="checkout-delivered"
      unicode="&#xE028;"
      horiz-adv-x="1001" d="M691.315625 542.2083333333333L669.41875 586.0020833333333C668.3760416666668 589.1302083333333 665.2479166666667 591.215625 663.1625 593.3010416666667C661.0770833333333 597.471875 656.90625 600.6000000000001 652.7354166666668 602.6854166666667L515.0979166666667 681.9312500000001C505.7135416666667 687.1447916666667 495.2864583333334 687.1447916666667 485.9020833333335 681.9312500000001L348.2645833333334 602.6854166666667C344.0937500000001 600.5999999999999 339.9229166666668 596.4291666666667 337.8375000000001 592.2583333333334C335.7520833333334 590.1729166666667 333.6666666666668 588.0875000000001 332.6239583333334 586.0020833333333L309.684375 542.2083333333333C305.5135416666667 533.8666666666667 308.6416666666667 523.4395833333333 316.9833333333334 518.2260416666667L333.6666666666667 507.7989583333334V418.1260416666667C333.6666666666667 407.6989583333333 338.8802083333334 398.3145833333333 348.2645833333334 393.1010416666667L485.9020833333333 313.8552083333334C487.9875 312.8125000000001 490.0729166666666 311.7697916666667 493.2010416666666 310.7270833333335V309.6843750000002H496.3291666666667C499.4572916666666 308.6416666666669 502.5854166666667 308.6416666666669 505.7135416666666 309.6843750000002H508.8416666666666V310.7270833333335C510.9270833333333 311.7697916666667 513.0124999999999 311.7697916666667 515.0979166666666 313.8552083333334L652.7354166666667 393.1010416666668C662.1197916666666 398.3145833333334 667.3333333333333 407.6989583333334 667.3333333333333 418.1260416666668V507.7989583333334L684.0166666666667 518.2260416666668C692.3583333333335 523.4395833333333 695.4864583333334 533.8666666666667 691.315625 542.2083333333333zM492.1583333333334 328.453125L355.5635416666667 407.6989583333333C351.3927083333334 409.784375 349.3072916666667 413.9552083333333 349.3072916666667 419.1687500000001V499.4572916666667L455.6635416666667 435.8520833333334C465.0479166666667 430.6385416666667 476.5177083333334 433.7666666666667 481.73125 443.1510416666668L493.2010416666668 466.090625V328.4531250000001H492.1583333333334zM650.65 419.1687500000001C650.65 414.9979166666667 648.5645833333333 409.784375 644.39375 407.6989583333333L507.7989583333333 329.4958333333333V466.090625L519.26875 443.1510416666667C524.4822916666667 433.7666666666667 535.9520833333333 430.6385416666666 545.3364583333333 435.8520833333334L650.65 499.4572916666666C650.65 499.4572916666666 650.65 419.1687500000001 650.65 419.1687500000001zM675.675 531.78125L536.9947916666667 448.3645833333333C535.9520833333333 447.321875 533.8666666666667 448.3645833333333 532.8239583333334 449.4072916666667L522.396875 470.2614583333333C515.0979166666667 468.1760416666666 507.7989583333334 467.1333333333333 499.4572916666667 467.1333333333333S483.8166666666667 468.1760416666667 476.5177083333333 470.2614583333333L466.090625 449.4072916666667C465.0479166666667 448.3645833333333 464.0052083333333 447.321875 461.9197916666666 448.3645833333333L323.2395833333334 531.78125C322.196875 532.8239583333334 321.1541666666667 533.8666666666667 322.196875 534.909375L344.09375 578.703125C345.1364583333334 579.7458333333334 346.1791666666668 580.7885416666667 348.2645833333334 579.7458333333334L416.0406250000001 539.0802083333333C417.0833333333334 543.2510416666667 417.0833333333334 547.421875 417.0833333333334 551.5927083333333V558.8916666666667L359.734375 593.3010416666667L492.1583333333334 669.41875V635.0093750000001H500.5H508.8416666666666V669.41875L641.265625 593.3010416666667L583.9166666666667 557.8489583333333V550.55C583.9166666666667 546.3791666666666 583.9166666666667 542.2083333333333 582.8739583333333 539.0802083333333L650.65 579.7458333333332C651.6927083333334 580.7885416666666 653.778125 579.7458333333332 653.778125 578.7031249999999L675.675 534.909375C677.7604166666667 533.8666666666667 676.7177083333335 532.8239583333334 675.675 531.78125zM500.5 621.4541666666667C461.9197916666666 621.4541666666667 429.5958333333334 590.1729166666667 429.5958333333334 550.55S460.8770833333334 479.6458333333334 500.5 479.6458333333334C539.0802083333334 479.6458333333334 571.4041666666667 510.9270833333334 571.4041666666667 550.55S539.0802083333334 621.4541666666667 500.5 621.4541666666667zM500.5 496.3291666666667C470.2614583333334 496.3291666666667 446.2791666666667 521.3541666666666 446.2791666666667 550.55S471.3041666666667 604.7708333333333 500.5 604.7708333333333C530.7385416666667 604.7708333333333 554.7208333333334 579.7458333333334 554.7208333333334 550.55S530.7385416666667 496.3291666666667 500.5 496.3291666666667zM525.525 576.6177083333332L489.0302083333333 531.78125L474.4322916666667 546.3791666666666C471.3041666666667 549.5072916666666 466.090625 549.5072916666666 462.9625 546.3791666666666S459.834375 538.0374999999999 462.9625 534.909375L483.8166666666667 514.0552083333332C484.859375 513.0124999999999 486.9447916666667 511.9697916666666 489.0302083333333 511.9697916666666S493.2010416666666 513.0124999999999 494.24375 515.0979166666666L535.9520833333333 567.2333333333332C539.0802083333333 570.3614583333332 538.0375 575.5749999999998 534.909375 578.7031249999999C532.8239583333334 580.7885416666667 528.653125 579.7458333333334 525.525 576.6177083333332z" />
    <glyph glyph-name="checkout-packed"
      unicode="&#xE029;"
      horiz-adv-x="1001" d="M655.8635416666667 603.728125L518.2260416666667 682.9739583333333C508.8416666666668 688.1875 498.4145833333334 688.1875 489.0302083333334 682.9739583333333L351.3927083333334 603.728125C342.0083333333334 598.5145833333333 336.7947916666668 589.1302083333333 336.7947916666668 578.703125V419.1687500000001C336.7947916666668 408.7416666666667 342.0083333333334 399.3572916666667 351.3927083333334 394.14375L490.0729166666667 314.8979166666667C499.4572916666667 309.6843750000001 509.884375 309.6843750000001 519.26875 314.8979166666667L656.90625 394.14375C666.290625 399.3572916666666 671.5041666666667 408.7416666666666 671.5041666666667 419.16875V578.703125C670.4614583333333 589.1302083333333 665.2479166666667 598.5145833333333 655.8635416666667 603.728125zM496.3291666666667 329.4958333333333L359.734375 408.7416666666666C355.5635416666667 410.8270833333333 353.478125 414.9979166666666 353.478125 420.2114583333334V576.6177083333332L496.3291666666667 494.24375C496.3291666666667 494.24375 496.3291666666667 329.4958333333333 496.3291666666667 329.4958333333333zM360.7770833333334 590.1729166666667L497.371875 669.41875C501.5427083333334 671.5041666666666 506.75625 671.5041666666666 509.8843750000001 669.41875L646.4791666666667 590.1729166666667L503.628125 507.7989583333334C503.628125 507.7989583333334 360.7770833333334 590.1729166666667 360.7770833333334 590.1729166666667zM600.6 545.3364583333332V380.5885416666667L574.5322916666668 364.9479166666667V530.7385416666666C574.5322916666668 530.7385416666666 600.6 545.3364583333332 600.6 545.3364583333332zM511.9697916666667 329.4958333333333V494.24375L558.8916666666668 521.3541666666666V356.6062500000001L511.9697916666667 329.4958333333333zM654.8208333333333 419.1687500000001C654.8208333333333 414.9979166666667 652.7354166666667 409.784375 648.5645833333333 407.6989583333333L616.240625 388.9302083333334V554.7208333333333L654.8208333333333 577.6604166666667C654.8208333333333 577.6604166666666 654.8208333333333 419.1687500000001 654.8208333333333 419.1687500000001z" />
    <glyph glyph-name="checkout-payment"
      unicode="&#xE02A;"
      horiz-adv-x="1001" d="M668.3760416666667 665.2479166666667C664.2052083333333 671.5041666666666 657.9489583333333 676.7177083333333 650.65 680.8885416666667C645.4364583333332 682.9739583333333 640.2229166666666 685.0593749999999 633.9666666666666 686.1020833333332C631.8812499999999 686.1020833333332 630.8385416666666 687.1447916666666 628.753125 687.1447916666666H627.7104166666666H394.14375C383.7166666666667 687.1447916666666 374.3322916666667 678.8031249999999 374.3322916666667 667.3333333333333V616.2406249999999H353.478125C343.0510416666667 616.2406249999999 333.6666666666667 607.8989583333334 333.6666666666667 596.4291666666667V344.09375C333.6666666666667 333.6666666666667 342.0083333333334 324.2822916666666 353.478125 324.2822916666666H655.8635416666667C666.290625 324.2822916666666 675.675 332.6239583333333 675.675 344.0937499999999V642.3083333333334C675.675 650.65 672.546875 658.9916666666667 668.3760416666667 665.2479166666667zM353.478125 522.3968749999999H448.3645833333334C477.5604166666666 522.3968749999999 501.5427083333334 498.4145833333333 501.5427083333334 469.21875S477.5604166666668 416.040625 448.3645833333334 416.040625H353.478125C353.478125 416.040625 353.478125 522.3968749999999 353.478125 522.3968749999999zM657.9489583333334 344.09375C657.9489583333334 343.0510416666666 656.90625 343.0510416666666 657.9489583333334 344.09375L354.5208333333334 343.0510416666666C353.478125 343.0510416666666 353.478125 344.09375 353.478125 344.09375V397.271875H448.3645833333334C487.9875 397.271875 520.3114583333333 429.5958333333333 520.3114583333333 469.21875S487.9875 541.165625 448.3645833333334 541.165625H353.478125V596.4291666666666C353.478125 597.471875 354.5208333333334 597.471875 354.5208333333334 597.471875H627.7104166666668H628.7531250000001H633.9666666666667C640.2229166666667 598.5145833333333 645.4364583333335 599.5572916666666 649.6072916666667 601.6427083333333C651.6927083333335 602.6854166666667 657.9489583333334 604.7708333333333 657.9489583333334 604.7708333333333V344.09375zM653.778125 625.625C651.6927083333334 622.496875 647.521875 620.4114583333333 643.3510416666668 619.36875C639.1802083333334 617.2833333333333 635.0093750000001 617.2833333333333 631.88125 616.2406249999999H627.7104166666668H393.1010416666668V667.3333333333333C393.1010416666668 668.3760416666667 394.1437500000001 668.3760416666667 394.1437500000001 668.3760416666667H626.6677083333335H627.7104166666668H631.8812500000001C635.0093750000001 668.3760416666667 639.1802083333334 667.3333333333333 643.3510416666668 665.2479166666667C647.5218750000001 663.1625 651.6927083333335 660.034375 653.7781250000002 655.8635416666667C656.9062500000001 650.6500000000001 658.9916666666668 645.4364583333333 658.9916666666668 637.0947916666667C657.9489583333334 632.9239583333333 656.90625 628.753125 653.778125 625.625zM467.1333333333333 469.21875C467.1333333333333 484.859375 454.6208333333333 498.4145833333333 437.9375 498.4145833333333S408.7416666666668 485.9020833333333 408.7416666666668 469.21875S421.2541666666668 440.0229166666667 437.9375 440.0229166666667S467.1333333333333 453.578125 467.1333333333333 469.21875zM437.9375 456.70625C430.6385416666667 456.70625 425.425 462.9625 425.425 469.21875C425.425 476.5177083333333 431.6812500000001 481.73125 437.9375 481.73125C445.2364583333334 481.73125 450.45 475.475 450.45 469.21875C450.45 461.9197916666666 445.2364583333334 456.70625 437.9375 456.70625z" />
    <glyph glyph-name="checkout-shipping"
      unicode="&#xE02B;"
      horiz-adv-x="1011.4270833333334" d="M426.4677083333334 582.8739583333333C426.4677083333334 587.0447916666667 423.3395833333334 591.2156249999999 418.1260416666667 591.2156249999999H324.2822916666667C320.1114583333334 591.2156249999999 315.940625 588.0875 315.940625 582.8739583333333S319.06875 574.5322916666667 324.2822916666667 574.5322916666667H418.1260416666667C423.3395833333334 574.5322916666667 426.4677083333334 577.6604166666666 426.4677083333334 582.8739583333333zM707.9989583333335 490.0729166666666C707.9989583333335 491.115625 707.9989583333335 491.115625 706.9562500000002 492.1583333333334L654.8208333333334 586.0020833333333C653.7781250000002 588.0875000000001 650.6500000000002 590.1729166666667 647.5218750000001 590.1729166666667H603.7281250000001V644.39375C603.7281250000001 648.5645833333333 600.6000000000001 652.7354166666667 595.3864583333335 652.7354166666667H303.4281250000001C299.2572916666668 652.7354166666667 295.0864583333335 649.6072916666667 295.0864583333335 644.39375S298.2145833333335 636.0520833333334 303.4281250000001 636.0520833333334H588.0875000000001V442.1083333333334C567.2333333333335 438.9802083333334 550.5500000000001 422.296875 547.4218750000001 401.4427083333334H487.9875000000001C483.8166666666668 425.4250000000001 464.0052083333334 443.1510416666668 438.9802083333334 443.1510416666668S394.1437500000001 425.4250000000001 389.9729166666667 401.4427083333334H362.8625V511.9697916666667H396.2291666666667C400.4000000000001 511.9697916666667 404.5708333333334 515.0979166666666 404.5708333333334 520.3114583333333S401.4427083333334 528.6531249999999 396.2291666666667 528.6531249999999H333.6666666666667C329.4958333333334 528.6531249999999 325.325 525.525 325.325 520.3114583333333S328.453125 511.9697916666667 333.6666666666667 511.9697916666667H346.1791666666668V395.1864583333334C346.1791666666668 391.015625 349.3072916666667 386.8447916666668 354.5208333333334 386.8447916666668H388.9302083333334C393.1010416666666 362.8625000000001 412.9125 345.1364583333334 437.9375 345.1364583333334S482.7739583333333 362.8625000000001 486.9447916666667 386.8447916666668H546.3791666666667C550.5500000000001 362.8625000000001 570.3614583333334 345.1364583333334 595.3864583333335 345.1364583333334S640.2229166666667 362.8625000000001 644.3937500000002 386.8447916666668H694.4437500000001C701.7427083333334 386.8447916666668 706.9562500000002 393.1010416666668 706.9562500000002 399.3572916666667V487.9875000000001C707.9989583333335 489.0302083333333 707.9989583333335 490.0729166666666 707.9989583333335 490.0729166666666zM603.728125 574.5322916666667H643.3510416666667L687.1447916666666 496.3291666666667H603.728125V574.5322916666667zM440.0229166666668 360.7770833333333C421.2541666666668 360.7770833333333 406.65625 376.4177083333333 406.65625 394.14375S422.296875 427.5104166666668 440.0229166666668 427.5104166666668S473.3895833333334 411.8697916666668 473.3895833333334 394.14375S458.7916666666667 360.7770833333333 440.0229166666668 360.7770833333333zM596.4291666666667 360.7770833333333C577.6604166666667 360.7770833333333 563.0625 376.4177083333333 563.0625 394.14375S578.703125 427.5104166666668 596.4291666666667 427.5104166666668S629.7958333333335 411.8697916666668 629.7958333333335 394.14375S615.1979166666667 360.7770833333333 596.4291666666667 360.7770833333333zM692.3583333333335 402.4854166666667H644.3937500000001C641.2656250000001 423.3395833333333 624.5822916666667 440.0229166666667 603.7281250000001 443.1510416666667V480.6885416666667H692.3583333333335V402.4854166666667z" />
    <glyph glyph-name="christmas-tree"
      unicode="&#xE02C;"
      horiz-adv-x="770" d="M385 983.419668L647.339 639.0999999999999H505.6333333333333L698.1333333333333 382.4333333333333H573.6115000000001L766.1115000000001 151.4333333333333H490.2333333333334V10.2666666666665H279.7666666666667V151.4333333333333H3.8873193333333L196.3872166666667 382.4333333333333H71.8666666666667L264.3666666666667 639.0999999999999H122.6612566666667L385 983.419668zM236.6720766666667 695.5666666666666H377.3L184.8 438.9H316.9448333333334L124.4461166666667 207.9H336.2333333333334V66.7333333333334H433.7666666666667V207.9H645.5551666666667L453.0551666666667 438.9H585.2L392.7000000000001 695.5666666666666H533.3276666666667L385 890.24705L236.6720766666667 695.5666666666666z" />
    <glyph glyph-name="circle"
      unicode="&#xE02D;"
      horiz-adv-x="1001" d="M25.025 500.5A475.475 475.475 0 0 1 975.975 500.5A475.475 475.475 0 0 1 25.025 500.5" />
    <glyph glyph-name="clock-14"
      unicode="&#xE02E;"
      horiz-adv-x="1001" d="M500.5 0C221.65 0 0 221.65 0 500.5C0 779.35 221.65 1001 500.5 1001C779.35 1001 1001 779.35 1001 500.5C1001 221.65 779.35 0 500.5 0zM500.5 915.2C271.7 915.2 85.8 729.3 85.8 500.5S271.7 85.8 500.5 85.8S915.2 271.7 915.2 500.4999999999999S729.3 915.2 500.5 915.2zM543.4 643.5C543.4 664.95 521.9499999999999 686.4 500.5 686.4S457.6 664.95 457.6 643.5H543.4zM500.5 464.75H457.6C457.6 450.4499999999999 464.75 443.3000000000001 471.9 436.15L500.5 464.75zM650.65 257.4C664.9499999999999 243.1 693.55 243.1 707.85 257.4C722.15 271.7 722.15 300.3 707.85 314.6L650.65 257.4zM457.6 643.5V464.75H543.4000000000001V643.5H457.6zM471.9 436.15L650.65 257.4L707.85 314.6L529.1 493.35L471.9 436.15z" />
    <glyph glyph-name="clock-16"
      unicode="&#xE02F;"
      horiz-adv-x="1001" d="M956.5111111111112 784.1166666666667C956.5111111111112 878.6555555555556 878.6555555555556 956.5111111111112 784.1166666666667 956.5111111111112C717.3833333333334 956.5111111111112 661.7722222222221 917.5833333333334 628.4055555555557 861.9722222222222C544.9888888888889 895.3388888888888 450.4500000000001 895.3388888888888 367.0333333333334 861.9722222222222C339.2277777777778 917.5833333333334 278.0555555555556 956.511111111111 211.3222222222223 956.511111111111C116.7833333333334 956.511111111111 38.9277777777778 878.6555555555556 38.9277777777778 784.1166666666667C38.9277777777778 717.3833333333332 77.8555555555556 661.7722222222221 133.4666666666667 628.4055555555556C122.3444444444445 589.4777777777778 116.7833333333334 544.9888888888888 116.7833333333334 500.5C116.7833333333334 389.2777777777777 166.8333333333334 283.6166666666666 250.25 211.3222222222222L161.2722222222223 88.9777777777778C150.15 77.8555555555556 155.7111111111111 55.6111111111111 166.8333333333334 50.0500000000001C177.9555555555556 38.9277777777779 200.2 44.4888888888888 205.7611111111111 55.6111111111112L294.738888888889 177.9555555555556C355.9111111111112 139.027777777778 428.2055555555557 116.7833333333334 500.5 116.7833333333334S645.088888888889 139.027777777778 706.2611111111111 177.9555555555556L795.2388888888888 55.6111111111112C800.8 50.0500000000001 811.9222222222222 44.4888888888891 817.4833333333333 44.4888888888891C823.0444444444445 44.4888888888891 828.6055555555555 44.4888888888891 834.1666666666667 50.0500000000003C845.2888888888889 61.1722222222225 850.8500000000001 77.8555555555558 839.7277777777778 88.977777777778L750.75 211.3222222222224C834.1666666666667 283.6166666666669 884.2166666666667 389.277777777778 884.2166666666667 500.5000000000002C884.2166666666667 544.988888888889 878.6555555555557 589.4777777777779 861.9722222222223 633.9666666666669C917.5833333333334 661.7722222222222 956.5111111111112 722.9444444444445 956.5111111111112 784.1166666666667zM100.1 784.1166666666667C100.1 845.2888888888889 150.15 895.3388888888888 211.3222222222222 895.3388888888888C255.8111111111111 895.3388888888888 294.7388888888889 873.0944444444444 311.4222222222222 834.1666666666666C250.25 800.8 200.2 750.75 161.2722222222223 684.0166666666667C127.9055555555556 706.2611111111112 100.1 745.1888888888889 100.1 784.1166666666667zM684.0166666666668 839.7277777777778C700.7000000000002 878.6555555555556 739.6277777777779 900.9 784.1166666666668 900.9C845.288888888889 900.9 895.3388888888891 850.85 895.3388888888891 789.6777777777778C895.3388888888891 745.1888888888889 873.0944444444445 706.2611111111112 834.1666666666669 689.5777777777778C800.8000000000001 750.75 750.75 800.8 684.0166666666668 839.7277777777778zM828.6055555555556 500.5C828.6055555555556 322.5444444444445 684.0166666666668 172.3944444444444 500.5 172.3944444444444C322.5444444444445 172.3944444444444 172.3944444444445 316.9833333333333 172.3944444444445 500.5S322.5444444444445 828.6055555555556 500.5 828.6055555555556C544.9888888888889 828.6055555555556 595.0388888888889 817.4833333333333 633.9666666666667 800.8C706.2611111111112 767.4333333333333 761.8722222222223 711.8222222222222 795.2388888888889 639.5277777777778C817.4833333333333 595.0388888888889 828.6055555555556 550.55 828.6055555555556 500.5zM500.5 439.3277777777778H339.2277777777778C322.5444444444445 439.3277777777778 305.8611111111112 456.0111111111112 305.8611111111112 472.6944444444445S322.5444444444445 500.5 339.2277777777778 500.5H467.1333333333333V689.5777777777778C467.1333333333334 706.2611111111112 483.8166666666667 722.9444444444445 500.5 722.9444444444445C517.1833333333334 722.9444444444445 533.8666666666667 706.2611111111112 533.8666666666667 689.5777777777778V467.1333333333333C533.8666666666667 450.4499999999999 517.1833333333334 439.3277777777778 500.5 439.3277777777778z" />
    <glyph glyph-name="clock-24"
      unicode="&#xE030;"
      horiz-adv-x="1155" d="M200.2 970.2C138.6 958.65 92.4 924 61.6 873.95C30.8 823.9 23.1 762.3 38.5 696.8499999999999C42.35 685.3 50.05 677.5999999999999 61.6 677.5999999999999C61.6 677.5999999999999 65.45 677.5999999999999 65.45 677.5999999999999C73.15 677.5999999999999 77 681.45 80.85 689.1500000000001C84.7 693 84.7 700.7 84.7 708.4000000000001C77 762.3 80.85 812.35 103.95 850.85C127.05 889.35 161.7 912.45 207.9 920.15C215.6 920.15 219.45 924 223.3000000000001 931.7C227.15 935.55 231 943.25 227.15 950.95C227.15 962.5 211.75 974.05 200.2 970.2zM1093.3999999999999 873.95C1062.6 924 1016.4 954.8 954.7999999999998 966.35C939.4 970.2 927.85 958.65 923.9999999999998 947.1C923.9999999999998 939.4 923.9999999999998 935.55 927.85 927.85C931.7 924 935.5499999999998 920.15 943.2499999999998 916.3C989.4499999999998 908.6 1024.1 881.65 1047.1999999999998 847C1070.3 808.5 1077.9999999999998 758.45 1062.5999999999997 704.55C1062.5999999999997 696.8499999999999 1062.5999999999997 693 1066.4499999999998 685.3C1070.3 681.45 1074.1499999999999 673.75 1081.8499999999997 673.75C1081.8499999999997 673.75 1085.6999999999998 673.75 1085.6999999999998 673.75C1097.2499999999998 673.75 1108.8 681.45 1108.8 693C1131.8999999999999 762.3 1124.2 823.9 1093.3999999999999 873.95zM989.45 739.2C989.45 827.75 916.3 900.9 827.75 900.9C766.15 900.9 712.25 862.4 681.4499999999999 812.35C604.4499999999999 843.15 512.05 843.15 435.05 812.35C408.1 866.25 350.3499999999999 900.9 288.75 900.9C200.2 900.9 127.05 827.75 127.05 739.2C127.05 677.5999999999999 165.55 623.7 215.6 592.9000000000001C204.05 554.4000000000001 200.1999999999999 515.9000000000001 200.1999999999999 473.5500000000001C200.1999999999999 369.6 246.4 269.5 327.25 200.2000000000002L242.55 84.7000000000002C231 73.1500000000001 238.7 53.9000000000001 246.3999999999999 46.2000000000002C257.95 34.6500000000001 277.2 42.35 284.8999999999999 50.0500000000002L369.5999999999999 165.5500000000002C427.3499999999999 127.0500000000002 496.6499999999999 107.8000000000002 562.0999999999999 107.8000000000002S696.8499999999999 127.0500000000002 754.5999999999999 165.5500000000002L839.2999999999998 50.0500000000002C843.15 46.2000000000002 854.6999999999998 38.5000000000001 858.5499999999998 38.5000000000001S870.0999999999999 38.5000000000001 873.9499999999998 42.3500000000001C885.4999999999999 53.9000000000002 889.3499999999998 69.3000000000002 877.7999999999998 80.8500000000001L793.0999999999999 196.3500000000001C870.0999999999999 265.6500000000002 920.15 365.7500000000003 920.15 469.7000000000002C920.15 512.0500000000002 916.2999999999998 554.4000000000002 900.9 596.7500000000001C954.8 623.7 989.45 681.45 989.45 739.2zM180.95 739.2C180.95 796.95 227.15 843.15 284.9000000000001 843.15C327.25 843.15 361.9000000000001 823.9 381.1500000000001 785.4C323.4000000000001 754.6 277.2 708.4000000000001 238.7 642.95C207.9 666.05 180.95 700.7 180.95 739.2zM731.5 789.25C746.9 827.75 785.4 847 827.75 847C885.5 847 931.7 800.8 931.7 743.05C931.7 700.7 912.45 666.05 873.9499999999999 646.8C843.15 704.55 796.9499999999999 754.6 731.5 789.25zM870.1 469.6999999999999C870.1 300.2999999999999 735.35 161.6999999999999 562.1 161.6999999999999C392.7000000000001 161.6999999999999 254.1000000000001 296.45 254.1000000000001 469.6999999999999S396.55 777.6999999999999 562.1 777.6999999999999C604.45 777.6999999999999 650.6500000000001 766.15 689.1500000000001 750.75C758.4500000000002 719.95 808.5000000000001 666.05 843.1500000000001 596.75C858.5500000000001 558.25 870.1 515.9000000000001 870.1 469.6999999999999zM558.25 411.95H404.25C388.85 411.95 373.45 427.35 373.45 442.75C373.45 458.15 388.85 469.6999999999999 404.25 469.6999999999999H523.6V646.8C523.6 662.2 539 677.6000000000001 554.4 677.6000000000001C569.8000000000001 677.6000000000001 585.2 662.2 585.2 646.8V435.0500000000001C589.0500000000001 423.5 573.65 411.95 558.25 411.95z" />
    <glyph glyph-name="clock-27"
      unicode="&#xE031;"
      horiz-adv-x="1104.551724137931" d="M207.103448275862 945.7724137931034C207.103448275862 956.1275862068964 196.748275862069 959.5793103448274 186.3931034482759 959.5793103448274C131.1655172413793 949.2241379310344 86.2931034482759 914.706896551724 58.6793103448276 869.8344827586207C31.0655172413793 824.9620689655171 24.1620689655172 762.8310344827585 37.9689655172414 697.2482758620688C41.4206896551724 690.3448275862067 48.3241379310345 683.4413793103447 58.6793103448276 683.4413793103447C69.0344827586207 686.8931034482757 72.4862068965517 697.2482758620688 72.4862068965517 704.151724137931C58.6793103448276 762.8310344827585 69.0344827586207 814.606896551724 89.7448275862069 849.1241379310344C110.4551724137931 887.0931034482758 148.4241379310345 911.255172413793 196.748275862069 921.6103448275862C203.6517241379311 928.5137931034482 210.5551724137931 935.4172413793102 207.103448275862 945.7724137931034zM572.9862068965517 528.1137931034482C572.9862068965517 528.1137931034482 572.9862068965517 528.1137931034482 572.9862068965517 528.1137931034482V700.6999999999999C572.9862068965517 711.0551724137931 566.0827586206897 717.9586206896552 555.7275862068966 717.9586206896552C545.3724137931034 717.9586206896552 538.4689655172414 711.0551724137931 538.4689655172414 700.6999999999999V528.1137931034482C538.4689655172414 524.6620689655172 538.4689655172414 524.6620689655172 538.4689655172414 524.6620689655172C517.7586206896552 517.7586206896551 500.5 497.0482758620689 497.048275862069 476.3379310344827H365.8827586206897C355.5275862068966 476.3379310344827 348.6241379310345 469.4344827586207 348.6241379310345 459.0793103448275S355.5275862068966 441.8206896551724 365.8827586206897 441.8206896551724H497.048275862069C507.4034482758621 414.2068965517241 531.5655172413793 396.948275862069 559.1793103448276 396.948275862069C593.696551724138 396.948275862069 624.7620689655172 428.0137931034482 624.7620689655172 462.5310344827585C624.7620689655172 493.5965517241379 604.0517241379309 521.2103448275861 572.9862068965517 528.1137931034482zM559.1793103448275 431.4655172413793C541.9206896551724 431.4655172413793 528.1137931034482 445.2724137931033 528.1137931034482 462.5310344827585C528.1137931034482 479.7896551724137 541.9206896551724 493.5965517241379 559.1793103448275 493.5965517241379C576.4379310344826 493.5965517241379 590.2448275862067 479.7896551724137 590.2448275862067 462.5310344827585C590.2448275862068 445.2724137931033 576.4379310344826 431.4655172413793 559.1793103448275 431.4655172413793zM821.5103448275862 893.9965517241378C759.3793103448276 893.9965517241378 707.603448275862 856.0275862068964 683.4413793103448 800.7999999999998C642.0206896551724 818.0586206896551 597.1482758620689 824.9620689655171 552.2758620689655 824.9620689655171C507.403448275862 824.9620689655171 462.5310344827586 814.606896551724 421.1103448275861 800.7999999999998C396.948275862069 856.0275862068964 341.7206896551724 893.9965517241378 283.0413793103448 893.9965517241378C200.1999999999999 893.9965517241378 131.1655172413793 824.9620689655171 131.1655172413793 742.1206896551723C131.1655172413793 679.9896551724137 169.1344827586206 624.7620689655171 224.3620689655172 604.0517241379309C207.103448275862 559.1793103448275 196.748275862069 517.7586206896551 196.748275862069 469.4344827586206C196.748275862069 358.9793103448275 248.5241379310345 262.3310344827586 324.4620689655173 196.7482758620689L234.7172413793104 72.4862068965516C227.8137931034483 65.5827586206896 231.2655172413793 55.2275862068965 238.1689655172414 48.3241379310344C241.6206896551724 44.8724137931033 245.0724137931035 44.8724137931033 248.5241379310345 44.8724137931033C255.4275862068966 44.8724137931033 258.8793103448276 48.3241379310344 262.3310344827587 51.7758620689654L352.0758620689656 176.0379310344827C407.3034482758621 138.0689655172412 476.3379310344827 113.906896551724 552.2758620689655 113.906896551724S693.7965517241379 134.6172413793103 752.4758620689655 176.0379310344827L842.2206896551725 51.7758620689654C845.6724137931035 48.3241379310343 852.5758620689655 44.8724137931033 856.0275862068964 44.8724137931033S862.9310344827585 48.3241379310344 866.3827586206896 48.3241379310344C873.2862068965517 55.2275862068965 876.7379310344827 65.5827586206896 869.8344827586207 72.4862068965516L780.0896551724138 193.2965517241378C859.4793103448276 258.8793103448275 907.803448275862 355.5275862068965 907.803448275862 465.9827586206895C907.803448275862 510.855172413793 900.9 555.7275862068964 883.6413793103447 597.1482758620688C938.8689655172413 621.310344827586 976.8379310344828 676.5379310344827 976.8379310344828 735.2172413793102C973.3862068965516 824.9620689655171 907.803448275862 893.9965517241378 821.5103448275862 893.9965517241378zM162.2310344827586 742.1206896551723C162.2310344827586 807.703448275862 214.0068965517241 862.9310344827585 283.0413793103448 862.9310344827585C331.3655172413793 862.9310344827585 372.7862068965517 831.8655172413792 393.4965517241379 790.4448275862069C327.9137931034482 755.9275862068964 269.2344827586207 700.6999999999999 238.1689655172413 635.1172413793103C193.2965517241379 648.9241379310345 162.2310344827586 693.7965517241378 162.2310344827586 742.1206896551723zM552.2758620689655 148.4241379310345C376.2379310344828 148.4241379310345 231.2655172413793 293.3965517241379 231.2655172413793 469.4344827586207S376.2379310344828 793.8965517241379 552.2758620689655 793.8965517241379C597.1482758620689 793.8965517241379 642.0206896551724 783.5413793103447 686.8931034482757 762.8310344827585C759.3793103448276 731.7655172413793 814.6068965517239 673.0862068965516 845.6724137931034 604.0517241379309C862.9310344827585 562.6310344827587 876.7379310344826 517.7586206896551 876.7379310344826 469.4344827586206C873.2862068965517 293.3965517241379 728.3137931034482 148.4241379310345 552.2758620689655 148.4241379310345zM869.8344827586205 631.6655172413792C835.3172413793102 697.2482758620689 783.5413793103447 752.4758620689654 714.506896551724 786.9931034482759C731.7655172413793 828.4137931034481 776.6379310344827 859.4793103448275 824.9620689655171 859.4793103448275C890.5448275862067 859.4793103448275 945.7724137931032 804.251724137931 945.7724137931032 738.6689655172413C942.3206896551724 693.7965517241378 911.255172413793 648.9241379310345 869.8344827586205 631.6655172413792zM1045.8724137931033 869.8344827586207C1018.2586206896552 914.706896551724 973.3862068965516 949.2241379310344 918.158620689655 959.5793103448274C907.803448275862 959.5793103448274 897.4482758620688 956.1275862068964 897.4482758620688 945.7724137931034S900.9 928.5137931034482 911.255172413793 925.0620689655173C956.1275862068964 914.706896551724 994.0965517241378 890.5448275862068 1018.2586206896552 852.5758620689654S1049.3241379310343 766.2827586206895 1035.5172413793102 707.603448275862C1032.0655172413792 697.2482758620688 1035.5172413793102 690.3448275862067 1045.8724137931033 686.8931034482757C1056.2275862068966 683.4413793103447 1063.1310344827587 690.3448275862067 1066.5827586206897 700.6999999999999C1080.3896551724138 762.8310344827585 1073.4862068965517 821.5103448275861 1045.8724137931033 869.8344827586207z" />
    <glyph glyph-name="clock-49"
      unicode="&#xE032;"
      horiz-adv-x="1144" d="M194.0714285714286 986.7C192.0285714285714 996.9142857142856 181.8142857142857 1003.042857142857 171.6 1000.9999999999998C110.3142857142857 988.742857142857 61.2857142857143 954.0142857142856 30.6428571428571 902.942857142857C2.0428571428571 851.8714285714285 -8.1714285714286 786.4999999999999 8.1714285714286 714.9999999999999C10.2142857142857 704.7857142857142 20.4285714285714 698.6571428571427 30.6428571428571 700.6999999999999C40.8571428571429 702.742857142857 46.9857142857143 712.9571428571428 44.9428571428571 723.1714285714285C30.6428571428571 786.4999999999999 40.8571428571429 841.6571428571427 63.3285714285714 882.5142857142856C87.8428571428571 923.3714285714286 128.7 951.9714285714284 179.7714285714286 962.1857142857142C189.9857142857143 966.2714285714284 196.1142857142857 976.4857142857142 194.0714285714286 986.7zM594.4714285714285 527.0571428571428C594.4714285714285 527.0571428571428 594.4714285714285 529.0999999999999 594.4714285714285 527.0571428571428L594.4714285714285 717.0428571428571C594.4714285714285 727.2571428571428 586.3000000000001 735.4285714285713 576.0857142857143 735.4285714285713C565.8714285714286 735.4285714285713 557.7 727.2571428571428 557.7 717.0428571428571V529.0999999999999C557.7 527.0571428571428 557.7 527.0571428571428 557.7 525.0142857142857C533.1857142857143 516.8428571428572 514.8000000000001 496.4142857142857 510.7142857142857 471.9H367.7142857142858C357.5000000000001 471.9 349.3285714285715 463.7285714285714 349.3285714285715 453.5142857142857C349.3285714285715 443.3 357.5000000000001 435.1285714285715 367.7142857142858 435.1285714285715H512.7571428571429C522.9714285714285 406.5285714285715 549.5285714285715 386.1 580.1714285714286 386.1C618.9857142857143 386.1 651.6714285714286 418.7857142857144 651.6714285714286 457.6C649.6285714285714 492.3285714285714 627.1571428571428 520.9285714285713 594.4714285714285 527.0571428571428zM580.1714285714285 422.8714285714285C561.7857142857142 422.8714285714285 547.4857142857142 437.1714285714285 547.4857142857142 457.5999999999999C547.4857142857142 475.9857142857142 561.7857142857142 492.3285714285713 580.1714285714285 492.3285714285713C598.5571428571427 492.3285714285713 612.8571428571428 478.0285714285714 612.8571428571428 457.5999999999999C612.8571428571428 439.2142857142857 598.5571428571428 422.8714285714285 580.1714285714285 422.8714285714285zM868.2142857142857 929.4999999999998C800.8 929.4999999999998 741.5571428571427 888.642857142857 715 827.3571428571428C670.0571428571427 845.742857142857 621.0285714285714 853.9142857142856 572 853.9142857142856C520.9285714285714 853.9142857142856 473.9428571428571 843.6999999999999 429 827.3571428571428C402.4428571428571 888.642857142857 343.2 929.4999999999998 275.7857142857143 929.4999999999998C183.8571428571428 929.4999999999998 108.2714285714286 853.9142857142856 108.2714285714286 761.9857142857143C108.2714285714286 694.5714285714284 149.1285714285714 633.2857142857142 210.4142857142857 608.7714285714285C192.0285714285714 563.8285714285714 183.8571428571428 516.8428571428572 183.8571428571428 465.7714285714285C183.8571428571428 345.242857142857 239.0142857142857 236.9714285714286 324.8142857142857 165.4714285714285L224.7142857142857 30.6428571428571C218.5857142857143 22.4714285714285 220.6285714285714 10.2142857142857 228.8 4.0857142857143C232.8857142857143 2.0428571428571 236.9714285714286 0 239.0142857142857 0C245.1428571428571 0 249.2285714285714 2.0428571428571 253.3142857142857 8.1714285714285L353.4142857142857 143C414.7 100.0999999999999 490.2857142857142 75.5857142857143 571.9999999999999 75.5857142857143C653.7142857142856 75.5857142857143 727.2571428571426 100.1 790.5857142857142 143L890.6857142857141 8.1714285714285C894.7714285714285 4.0857142857142 900.8999999999997 0 904.9857142857142 0C909.0714285714286 0 913.1571428571428 2.0428571428571 915.1999999999998 4.0857142857143C923.3714285714284 10.2142857142857 925.4142857142856 22.4714285714285 919.2857142857142 30.6428571428571L819.1857142857142 163.4285714285713C904.9857142857142 234.9285714285714 960.1428571428572 343.2 960.1428571428572 463.7285714285713C960.1428571428572 512.7571428571428 951.9714285714286 561.7857142857142 933.5857142857142 606.7285714285713C994.8714285714286 633.2857142857142 1035.7285714285715 692.5285714285712 1035.7285714285715 759.9428571428571C1035.7285714285715 853.9142857142856 960.1428571428572 929.4999999999998 868.2142857142857 929.4999999999998zM145.0428571428571 761.9857142857143C145.0428571428571 833.4857142857143 202.2428571428571 892.7285714285713 275.7857142857143 892.7285714285713C328.9 892.7285714285713 375.8857142857143 860.0428571428571 396.3142857142857 813.0571428571427C322.7714285714286 776.2857142857142 261.4857142857143 714.9999999999999 224.7142857142857 641.4571428571428C177.7285714285714 661.8857142857141 145.0428571428571 708.8714285714284 145.0428571428571 761.9857142857143zM572 112.3571428571428C377.9285714285714 112.3571428571428 220.6285714285714 271.7 220.6285714285714 465.7714285714285C220.6285714285714 659.842857142857 377.9285714285714 819.1857142857142 572 819.1857142857142C623.0714285714286 819.1857142857142 672.0999999999999 808.9714285714285 719.0857142857143 786.5C796.7142857142857 751.7714285714285 857.9999999999999 688.4428571428571 892.7285714285714 610.8142857142857C913.1571428571428 563.8285714285714 925.4142857142858 514.8 925.4142857142858 463.7285714285714C923.3714285714286 269.6571428571429 766.0714285714286 112.3571428571428 572 112.3571428571428zM919.2857142857142 641.4571428571428C882.5142857142857 714.9999999999999 823.2714285714285 774.242857142857 749.7285714285714 811.0142857142856C770.1571428571428 857.9999999999999 817.1428571428571 890.6857142857142 870.2571428571429 890.6857142857142C941.7571428571428 890.6857142857142 1000.9999999999998 831.4428571428571 1000.9999999999998 759.9428571428571C998.9571428571428 708.8714285714284 966.2714285714284 661.8857142857141 919.2857142857142 641.4571428571428zM1113.3571428571427 902.942857142857C1082.7142857142856 954.0142857142856 1033.6857142857143 988.742857142857 972.4 1000.9999999999998C962.1857142857142 1003.042857142857 951.9714285714286 996.9142857142856 949.9285714285714 986.7S954.0142857142858 966.2714285714284 964.2285714285714 964.2285714285712C1015.3 954.0142857142856 1056.1571428571428 925.4142857142856 1080.6714285714286 884.5571428571427C1105.1857142857143 843.6999999999999 1113.357142857143 788.542857142857 1099.057142857143 725.2142857142856C1097.0142857142857 714.9999999999999 1103.142857142857 704.7857142857142 1113.357142857143 702.742857142857C1123.5714285714287 700.6999999999999 1133.7857142857144 706.8285714285713 1135.8285714285714 717.042857142857C1152.1714285714284 786.4999999999999 1141.9571428571428 851.8714285714285 1113.3571428571427 902.942857142857z" />
    <glyph glyph-name="clock-80"
      unicode="&#xE033;"
      horiz-adv-x="1001" d="M437.9375 500.5C437.9375 530.7677375000001 459.4314724999999 556.0142087500001 487.9875 561.81125V763.2625C487.9875 770.17315375 493.5893462499999 775.775 500.5 775.775C507.41065375 775.775 513.0124999999999 770.17315375 513.0124999999999 763.2625V561.81125C541.5685275 556.0142087500001 563.0625 530.7677375000001 563.0625 500.5C563.0625 487.91117375 559.3450362499999 476.19196625 552.947395 466.3784125000001L671.5333625 359.6505412500001C676.66974375 355.0271725000001 677.08641 347.1155187500001 672.46304125 341.9791375000001C667.8396725 336.84275625 659.92801875 336.4260900000001 654.7916375 341.0494587500001L535.3573225 448.5405925C525.39612125 441.84515375 513.40414125 437.9375 500.5 437.9375C465.9479825 437.9375 437.9375 465.9479825 437.9375 500.5zM462.9625 500.5C462.9625 479.7680387500001 479.76803875 462.9625 500.5 462.9625C521.2319612499999 462.9625 538.0375 479.7680387500001 538.0375 500.5C538.0375 521.23196125 521.2319612499999 538.0375 500.5 538.0375C479.76803875 538.0375 462.9625 521.23196125 462.9625 500.5zM100.1 500.5C100.1 721.6346637500001 279.36533625 900.9 500.5 900.9C721.63466375 900.9 900.9 721.6346637500001 900.9 500.5C900.9 279.3653362500001 721.63466375 100.1 500.5 100.1C279.36533625 100.1 100.1 279.3653362500001 100.1 500.5zM125.330205 513.0125H162.6625C169.57315375 513.0125 175.175 507.4106537500001 175.175 500.5C175.175 493.58934625 169.57315375 487.9875000000001 162.6625 487.9875000000001H125.330205C131.7941625 290.62033 290.62033 131.7941625000001 487.9875 125.3302050000001V162.6625C487.9875 169.5731537500001 493.5893462499999 175.1750000000001 500.5 175.1750000000001C507.41065375 175.1750000000001 513.0124999999999 169.5731537500001 513.0124999999999 162.6625V125.3302050000001C710.37967 131.7941625000001 869.2058374999999 290.62033 875.6697949999999 487.9875000000001H838.3375C831.4268462499999 487.9875000000001 825.8249999999999 493.58934625 825.8249999999999 500.5C825.8249999999999 507.4106537500001 831.4268462499999 513.0125 838.3375 513.0125H875.6697949999999C869.2058374999999 710.37967 710.37967 869.2058375 513.0124999999999 875.669795V838.3375C513.0124999999999 831.42684625 507.41065375 825.825 500.5 825.825C493.5893462499999 825.825 487.9875 831.42684625 487.9875 838.3375V875.669795C290.62033 869.2058375 131.7941625 710.37967 125.330205 513.0125z" />
    <glyph glyph-name="clock"
      unicode="&#xE034;"
      horiz-adv-x="1001" d="M112.615628125 500.5A387.8875000000001 387.8875000000001 0 0 1 888.390628125 500.5A387.8875000000001 387.8875000000001 0 0 1 112.615628125 500.5M112.615628125 500.5H162.665628125M838.346884375 500.5L888.396884375 500.5M500.5 112.6125000000001L500.5 162.6625M500.5 838.3390640625L500.5 888.3890640625M450.446871875 500.5A50.05 50.05 0 0 1 550.5468718750001 500.5A50.05 50.05 0 0 1 450.446871875 500.5M500.5 550.55L500.5 763.2625M538.04375625 462.9640640624999L663.16875625 350.3515640625001" />
    <glyph glyph-name="close-12"
      unicode="&#xE035;"
      horiz-adv-x="1084.4166666666667" d="M998.3807166666668 867.5041375C1027.3346416666666 896.4613991666666 1027.3346416666666 943.40921675 998.3807166666668 972.3658110833334C969.4267916666666 1001.3225196975 922.47155 1001.3224955066667 893.517625 972.3658110833334L526.5043116666667 605.3514133333333L159.48933 972.3658945C130.5329025 1001.322547225 83.5843341666667 1001.32257225 54.6280735 972.3659779166666C25.67139575 943.4093001666666 25.6714791666667 896.4613991666666 54.6280735 867.5049716666666L421.6428883333334 500.48999L54.6279900833333 133.4750083333332C25.6713123333333 104.5210833333333 25.6713123333333 57.5741833333334 54.6279900833333 28.6119166666666C83.5843341666667 -0.3420083333333 130.5329025 -0.3420083333333 159.48933 28.6119166666666L526.5043116666667 395.6285666666667L893.517625 28.6119166666666C922.47155 -0.3420083333333 969.4267916666666 -0.3420083333333 998.3807166666668 28.6119166666666C1027.3346416666666 57.5741833333334 1027.3346416666666 104.5210833333333 998.3807166666668 133.4750083333332L631.3649008333334 500.48999L998.3807166666668 867.5041375z" />
    <glyph glyph-name="contact-24"
      unicode="&#xE036;"
      horiz-adv-x="1001" d="M350.35 834.1666666666666C396.2291666666667 834.1666666666666 433.7666666666667 800.8 442.1083333333334 754.9208333333333C446.2791666666668 729.8958333333333 450.45 700.7 462.9625000000001 675.675C475.4750000000001 642.3083333333333 467.1333333333334 604.7708333333333 442.1083333333334 579.7458333333332L417.0833333333334 558.8916666666667C454.6208333333334 504.6708333333333 500.5 454.6208333333333 558.8916666666668 421.2541666666667L579.7458333333334 442.1083333333334C604.7708333333334 467.1333333333333 642.3083333333334 475.475 675.675 462.9625C700.7 454.6208333333334 725.725 446.2791666666667 754.9208333333332 442.1083333333334C800.8000000000001 433.7666666666668 834.1666666666665 396.2291666666668 834.1666666666665 350.35V258.5916666666667C834.1666666666665 233.5666666666667 821.6541666666666 208.5416666666668 804.9708333333333 191.8583333333334S759.0916666666667 166.8333333333333 734.0666666666667 166.8333333333333C633.9666666666667 179.3458333333333 542.2083333333335 212.7125 458.7916666666667 262.7625C379.5458333333334 312.8125 316.9833333333334 375.375 266.9333333333335 454.6208333333333C212.7125 542.2083333333333 179.3458333333333 633.9666666666667 166.8333333333334 734.0666666666666C166.8333333333334 759.0916666666666 175.175 784.1166666666667 191.8583333333333 804.9708333333333C208.5416666666667 821.6541666666667 233.5666666666667 834.1666666666666 258.5916666666667 834.1666666666666H350.35zM350.35 771.6041666666666H258.5916666666667C250.25 771.6041666666666 241.9083333333334 771.6041666666666 237.7375 763.2625S225.225 746.5791666666667 229.3958333333334 742.4083333333333C237.7375 654.8208333333332 271.1041666666667 567.2333333333333 316.9833333333334 492.1583333333334C362.8625 421.2541666666667 421.2541666666667 362.8625 492.1583333333334 316.9833333333334C567.2333333333335 266.9333333333334 654.8208333333334 237.7375000000001 742.4083333333334 229.3958333333333C750.75 229.3958333333333 759.0916666666667 233.5666666666667 767.4333333333335 237.7375S775.7750000000001 250.25 775.7750000000001 258.5916666666666V350.3499999999999C775.7750000000001 367.0333333333333 763.2625 379.5458333333333 750.75 383.7166666666666C717.3833333333333 387.8875 688.1875 396.2291666666667 658.9916666666668 408.7416666666666C646.4791666666667 412.9124999999999 633.9666666666667 408.7416666666666 625.625 400.4L583.9166666666667 358.6916666666666C575.575 350.35 558.8916666666668 346.1791666666666 546.3791666666667 354.5208333333333C467.1333333333333 400.4 396.2291666666667 467.1333333333333 350.35 550.55C342.0083333333334 563.0625 346.1791666666666 575.5749999999999 354.5208333333333 588.0875L392.0583333333334 625.625C400.4000000000001 633.9666666666667 404.5708333333334 646.4791666666666 400.4000000000001 658.9916666666667C392.0583333333334 684.0166666666667 383.7166666666667 717.3833333333333 379.5458333333334 746.5791666666667C379.5458333333334 763.2625 367.0333333333334 771.6041666666666 350.35 771.6041666666666z" />
    </font>
</defs>
</svg>
